<?xml version="1.0" standalone="no"?>
<!DOCTYPE svg PUBLIC "-//W3C//DTD SVG 1.1//EN" "http://www.w3.org/Graphics/SVG/1.1/DTD/svg11.dtd" >
<svg xmlns="http://www.w3.org/2000/svg">
<metadata>Generated by IcoMoon</metadata>
<defs>
<font id="JetElements-widget" horiz-adv-x="1024">
<font-face units-per-em="1024" ascent="1024" descent="0" />
<missing-glyph horiz-adv-x="1024" />
<glyph unicode="&#x20;" horiz-adv-x="0" d="" />
<glyph unicode="&#xe900;" glyph-name="horizontal-timeline" d="M928 752c17.674 0 32-14.326 32-32v-224c0-17.674-14.326-32-32-32h-320c-17.674 0-32 14.326-32 32v224c0 17.674 14.326 32 32 32h320zM608 784c-35.346 0-64-28.654-64-64v-224c0-35.346 28.654-64 64-64h320c35.346 0 64 28.654 64 64v224c0 35.346-28.654 64-64 64h-320zM272 256c-26.51 0-48 21.49-48 48s21.49 48 48 48c20.899 0 38.68-13.357 45.269-32h405.462c6.589 18.643 24.37 32 45.269 32s38.68-13.357 45.269-32h162.731c8.837 0 16-7.163 16-16s-7.163-16-16-16h-162.731c-6.589-18.643-24.37-32-45.269-32s-38.68 13.357-45.269 32h-405.462c-6.589-18.643-24.37-32-45.269-32zM272 288c8.837 0 16 7.163 16 16s-7.163 16-16 16c-8.837 0-16-7.163-16-16s7.163-16 16-16zM784 304c0 8.837-7.163 16-16 16s-16-7.163-16-16c0-8.837 7.163-16 16-16s16 7.163 16 16zM48 720c0 35.346 28.654 64 64 64h320c35.346 0 64-28.654 64-64v-224c0-35.346-28.654-64-64-64h-320c-35.346 0-64 28.654-64 64v224zM304.006 752l-224.006-224.008v-31.992c0-15.67 11.264-28.71 26.137-31.464l287.463 287.464h-89.594zM259.206 752h-89.606l-89.6-89.6v-89.608l179.206 179.208zM80 707.2l44.8 44.8h-12.8c-17.673 0-32-14.326-32-32v-12.8zM150.401 464h89.601l223.998 224v32c0 15.67-11.264 28.71-26.136 31.464l-287.463-287.464zM464 643.2l-179.198-179.2h89.598l89.6 89.6v89.6zM464 508.8l-44.8-44.8h12.8c17.674 0 32 14.326 32 32v12.8z" />
<glyph unicode="&#xe901;" glyph-name="inline-svg" d="M880 832c0-21.429-14.042-39.578-33.427-45.747-0.786-5.326-1.998-12.134-3.866-20.139-4.64-19.885-13.336-47.235-29.595-77.656-27.941-52.275-77.906-113.011-166.658-160.458h284.277c6.589 18.643 24.37 32 45.269 32 26.51 0 48-21.49 48-48s-21.49-48-48-48c-20.899 0-38.68 13.357-45.269 32h-322.731v-32c0-26.51-21.49-48-48-48h-96c-26.51 0-48 21.49-48 48v23.475c-97.926-45.85-149.536-107.838-176.89-159.018-14.741-27.579-22.544-52.229-26.654-69.843-2.054-8.803-3.181-15.832-3.79-20.563l-0.123-0.978c18.36-6.741 31.458-24.378 31.458-45.074 0-26.51-21.49-48-48-48s-48 21.49-48 48c0 21.043 13.541 38.923 32.384 45.403 0.131 1.322 0.309 2.906 0.544 4.733 0.734 5.706 2.045 13.803 4.365 23.75 4.64 19.885 13.336 47.234 29.595 77.656 26.394 49.379 72.44 106.31 152.269 152.458h-269.888c-6.589-18.643-24.369-32-45.269-32-26.51 0-48 21.49-48 48s21.49 48 48 48c20.9 0 38.679-13.357 45.269-32h322.731v32c0 26.51 21.49 48 48 48h96c26.51 0 48-21.49 48-48v-15.475c97.926 45.848 149.536 107.838 176.89 159.018 14.741 27.578 22.544 52.227 26.654 69.843 1.248 5.349 2.154 10.042 2.81 13.962-17.778 7.032-30.354 24.374-30.354 44.653 0 26.51 21.49 48 48 48s48-21.49 48-48zM832 816c8.837 0 16 7.163 16 16s-7.163 16-16 16c-8.837 0-16-7.163-16-16s7.163-16 16-16zM560 576h-96c-8.837 0-16-7.163-16-16v-96c0-8.837 7.163-16 16-16h96c8.837 0 16 7.163 16 16v96c0 8.837-7.163 16-16 16zM64 512c0 8.837-7.164 16-16 16s-16-7.163-16-16c0-8.837 7.164-16 16-16s16 7.163 16 16zM976 496c8.837 0 16 7.163 16 16s-7.163 16-16 16c-8.837 0-16-7.163-16-16s7.163-16 16-16zM208 192c0 8.837-7.163 16-16 16s-16-7.163-16-16c0-8.837 7.163-16 16-16s16 7.163 16 16z" />
<glyph unicode="&#xe902;" glyph-name="vertical-timeline" d="M928 912c17.674 0 32-14.327 32-32v-160c0-17.674-14.326-32-32-32h-640c-17.674 0-32 14.326-32 32v160c0 17.673 14.326 32 32 32h640zM288 944c-35.346 0-64-28.654-64-64v-160c0-35.346 28.654-64 64-64h640c35.346 0 64 28.654 64 64v160c0 35.346-28.654 64-64 64h-640zM928 480c17.674 0 32-14.326 32-32v-160c0-17.674-14.326-32-32-32h-640c-17.674 0-32 14.326-32 32v160c0 17.674 14.326 32 32 32h640zM288 512c-35.346 0-64-28.654-64-64v-160c0-35.346 28.654-64 64-64h640c35.346 0 64 28.654 64 64v160c0 35.346-28.654 64-64 64h-640zM144 800c0 26.51-21.49 48-48 48s-48-21.49-48-48c0-20.899 13.357-38.68 32-45.269v-341.462c-18.643-6.589-32-24.37-32-45.269s13.357-38.68 32-45.269v-226.731c0-8.837 7.164-16 16-16s16 7.163 16 16v226.731c18.643 6.589 32 24.37 32 45.269s-13.357 38.68-32 45.269v341.462c18.643 6.589 32 24.37 32 45.269zM96 784c-8.836 0-16 7.163-16 16s7.164 16 16 16c8.836 0 16-7.163 16-16s-7.164-16-16-16zM112 368c0-8.837-7.164-16-16-16s-16 7.163-16 16c0 8.837 7.164 16 16 16s16-7.163 16-16z" />
<glyph unicode="&#xe903;" glyph-name="line-chart" d="M112 832c0 8.837 7.164 16 16 16s16-7.163 16-16v-688h272v338.731c-6.533 2.309-12.418 5.994-17.306 10.704l-126.696-73.149-0.222 0.387c0.147-1.538 0.224-3.096 0.224-4.674 0-26.51-21.49-48-48-48s-48 21.49-48 48c0 26.51 21.49 48 48 48 13.518 0 25.733-5.589 34.456-14.582l125.902 72.69c-0.237 1.931-0.358 3.898-0.358 5.893 0 26.51 21.49 48 48 48 21.443 0 39.603-14.061 45.76-33.467l174.309-46.706c8.794 9.92 21.632 16.173 35.931 16.173 11.704 0 22.43-4.189 30.762-11.15l134.093 134.093c-3.109 6.357-4.854 13.504-4.854 21.058 0 26.51 21.49 48 48 48s48-21.49 48-48c0-26.51-21.49-48-48-48-7.266 0-14.155 1.614-20.328 4.504l-140.36-140.358c0.453-2.648 0.688-5.37 0.688-8.146 0-20.899-13.357-38.68-32-45.269v-274.731h240c8.837 0 16-7.163 16-16s-7.163-16-16-16h-816c-8.836 0-16 7.163-16 16v704zM448 144h224v274.731c-18.643 6.589-32 24.37-32 45.269-0.026-0.638 0 0.643 0 0l-163.586 45.765c-5.17-12.579-15.53-22.48-28.414-27.034v-338.731zM896 640c8.837 0 16 7.163 16 16s-7.163 16-16 16c-8.837 0-16-7.163-16-16s7.163-16 16-16zM240 416c0 8.837-7.163 16-16 16s-16-7.163-16-16c0-8.837 7.163-16 16-16s16 7.163 16 16zM432 512c8.837 0 16 7.163 16 16s-7.163 16-16 16c-8.837 0-16-7.163-16-16s7.163-16 16-16zM704 464c0 8.837-7.163 16-16 16s-16-7.163-16-16c0-8.837 7.163-16 16-16s16 7.163 16 16z" />
<glyph unicode="&#xe904;" glyph-name="advanced-map" d="M752 304c-53.019 0-96 42.981-96 96s42.981 96 96 96c53.019 0 96-42.981 96-96s-42.981-96-96-96zM752 336c35.346 0 64 28.654 64 64s-28.654 64-64 64c-35.346 0-64-28.654-64-64s28.654-64 64-64zM480 251.429l-187.115-53.462c-1.552-0.501-3.197-0.768-4.885-0.765-1.688-0.003-3.333 0.264-4.885 0.765l-179.906 51.402c-13.738 3.926-23.209 16.482-23.209 30.77v605.439c0 21.26 20.349 36.609 40.791 30.769l167.209-47.774 187.115 53.461c1.552 0.501 3.197 0.768 4.885 0.765 1.688 0.003 3.333-0.264 4.885-0.765l179.906-51.402c13.738-3.925 23.21-16.482 23.21-30.768v-258.717c20.018 7.029 41.56 10.854 64 10.854 106.038 0 192-85.41 192-190.77 0-105.358-153.6-305.23-192-305.23-18.712 0-64.776 47.458-107.093 108.312l-164.907 47.117zM656 566.478v273.384l-160 45.714v-605.439l122.389-34.968c-32.853 54.429-58.389 113.102-58.389 156.061 0 70.611 38.611 132.262 96 165.248zM464 280.138v605.439l-160-45.714v-605.44l160 45.715zM272 234.422v605.44l-160 45.714v-605.439l160-45.715zM890.186 322.15c14.339 32.074 21.814 59.43 21.814 79.080 0 87.493-71.44 158.77-160 158.77s-160-71.277-160-158.77c0-19.65 7.475-47.006 21.814-79.080 14.038-31.405 33.4-64.582 54.195-94.974 20.816-30.424 42.485-57.206 60.744-76.003 9.194-9.466 16.888-16.246 22.672-20.411l0.574-0.41 0.574 0.41c5.784 4.165 13.478 10.946 22.672 20.411 18.259 18.797 39.928 45.579 60.744 76.003 20.795 30.392 40.157 63.57 54.195 94.974z" />
<glyph unicode="&#xe905;" glyph-name="pricing-table" d="M720 912c17.674 0 32-14.327 32-32v-736c0-17.674-14.326-32-32-32h-416c-17.674 0-32 14.326-32 32v736c0 17.673 14.326 32 32 32h416zM304 944c-35.346 0-64-28.654-64-64v-736c0-35.346 28.654-64 64-64h416c35.346 0 64 28.654 64 64v736c0 35.346-28.654 64-64 64h-416zM256 752h-192c-35.346 0-64-28.654-64-64v-512c0-35.346 28.654-64 64-64h192v32h-192c-17.673 0-32 14.326-32 32v512c0 17.674 14.327 32 32 32h192v32zM768 112h192c35.346 0 64 28.654 64 64v512c0 35.346-28.654 64-64 64h-192v-32h192c17.674 0 32-14.326 32-32v-512c0-17.674-14.326-32-32-32h-192v-32zM544.267 704v-47.123c1.483-0.47 2.957-0.97 4.418-1.496 15.499-5.531 29.186-14.070 40.443-25.738 11.302-11.434 19.456-25.093 24.859-40.256 5.52-15.357 7.915-32.074 7.915-49.622v-32.078h-72.886c6.584-2.925 12.838-6.034 18.742-9.341 16.731-9.291 30.741-21.565 40.846-37.146 11.098-16.968 15.395-36.779 15.395-57.256 0-21.4-5.067-41.707-16.749-59.434l-0.094-0.144c-11.384-17.075-27.229-29.798-46.387-38.25-5.544-2.445-11.261-4.49-17.131-6.158v-43.958h-87.514v43.32c-0.406 0.101-0.814 0.205-1.221 0.309l-0.179 0.046-0.179 0.048c-15.566 4.187-29.874 11.006-42.667 20.458-13.989 10.333-24.656 23.698-32.275 39.224l-0.064 0.133c-8.219 16.949-11.539 36.106-11.539 56.218v32.080h89.941c-7.976 3.365-15.514 6.978-22.584 10.856l-0.134 0.074c-16.746 9.286-30.782 21.523-41.013 37.013l-0.133 0.2-0.13 0.203c-10.893 17.043-15.246 36.749-15.246 57.227 0 20.651 4.683 40.285 15.325 57.701l0.072 0.117 0.074 0.118c10.726 17.218 25.918 30.29 44.598 39.093 5.802 2.778 11.806 5.069 17.986 6.909v46.654h87.512zM486.778 437.288c-9.723 3.082-18.97 6.429-27.698 10.069v-31.602c0-9.994 1.68-15.758 3.198-18.8 2.333-4.677 4.832-7.405 7.136-9.131 3.72-2.666 7.658-4.485 11.997-5.59 5.888-1.498 11.603-2.208 17.211-2.208 10.43 0 17.091 1.784 21.278 3.827 5.198 2.608 8.064 5.448 9.859 8.254 2.104 3.421 3.16 7.013 3.16 11.43 0 5.501-1.154 8.466-2.115 10.093l-0.179 0.302-0.173 0.307c-0.622 1.107-2.842 4.128-9.619 8.149l-0.232 0.136-0.227 0.141c-6.928 4.261-17.797 9.245-33.597 14.622zM426.024 415.755h-24.97c0-12.050 1.434-22.742 4.301-32.080 1.139-3.707 2.502-7.2 4.093-10.478 0.144-0.293 0.288-0.582 0.434-0.872 5.546-11 12.885-19.872 22.018-26.618 0.997-0.738 2.006-1.453 3.029-2.146 0.062-0.043 0.125-0.085 0.189-0.128 6.493-4.381 13.496-7.898 21.008-10.549 2.366-0.835 4.782-1.584 7.248-2.246 1.278-0.33 2.558-0.64 3.842-0.933 3.426-0.782 6.862-1.435 10.314-1.958 3.869-0.587 7.754-1.011 11.653-1.274v-38.394h21.402v38.53c4.006 0.312 7.891 0.786 11.653 1.419 7.637 1.286 14.77 3.237 21.403 5.851 0.682 0.269 1.358 0.546 2.030 0.827 0.040 0.018 0.078 0.034 0.118 0.051 0.437 0.184 0.872 0.373 1.304 0.563 13.85 6.109 24.619 14.933 32.314 26.472 0.144 0.218 0.286 0.438 0.427 0.658 0.034 0.050 0.064 0.101 0.096 0.15 7.283 11.416 10.954 25.061 11.016 40.936 0 0.136 0.002 0.27 0.002 0.406 0 15.050-2.925 27.606-8.774 37.674-0.093 0.16-0.186 0.318-0.278 0.475-0.397 0.667-0.806 1.322-1.229 1.966-6.81 10.518-16.517 19.296-29.122 26.331-0.085 0.046-0.17 0.094-0.254 0.141-0.034 0.019-0.069 0.038-0.102 0.058-12.57 7.037-27.642 13.33-45.219 18.88-0.226 0.074-0.45 0.147-0.674 0.222-0.165 0.054-0.33 0.109-0.494 0.163-17.667 5.856-31.346 11.65-41.037 17.381-0.032 0.019-0.066 0.038-0.098 0.058-0.168 0.099-0.336 0.2-0.501 0.299-9.094 5.594-15.61 11.757-19.542 18.49-0.062 0.107-0.125 0.213-0.186 0.32-0.293 0.515-0.571 1.032-0.835 1.554-3.699 7.312-5.587 15.797-5.662 25.453-0.002 0.203-0.003 0.406-0.003 0.611 0 10.046 2.238 19.277 6.715 27.693 0.080 0.152 0.162 0.304 0.243 0.454 0.034 0.061 0.067 0.122 0.102 0.184 3.123 5.658 7.378 10.533 12.76 14.624 2.059 1.566 4.283 3.018 6.672 4.354 0.058 0.032 0.115 0.064 0.171 0.096 0.272 0.15 0.547 0.301 0.824 0.448 7.040 3.774 15.504 6.13 25.387 7.069 3.272 0.31 6.699 0.466 10.282 0.466 3.885 0 7.592-0.248 11.122-0.746 5.877-0.827 11.262-2.344 16.155-4.549 0.504-0.214 1.003-0.435 1.496-0.661 0.030-0.014 0.061-0.027 0.090-0.042 5.8-2.67 10.904-6.166 15.314-10.485 0.742-0.728 1.464-1.477 2.166-2.251 0.101-0.11 0.2-0.221 0.301-0.333 0.261-0.293 0.52-0.59 0.778-0.89 4.731-5.418 8.411-11.651 11.038-18.701l0.032-0.088c0.389-1.050 0.755-2.117 1.099-3.203 2.797-8.418 4.197-17.648 4.197-27.694h24.968c0 11.819-1.294 22.512-3.882 32.080-0.264 0.974-0.541 1.936-0.83 2.886-0.037 0.117-0.072 0.234-0.107 0.349-0.398 1.282-0.819 2.542-1.266 3.782-3.675 10.333-8.845 19.162-15.509 26.486-0.059 0.066-0.12 0.131-0.179 0.197-0.632 0.69-1.278 1.365-1.938 2.029-5.891 6.141-12.848 11.086-20.869 14.832-2.189 1.022-4.459 1.957-6.806 2.8-0.077 0.029-0.154 0.056-0.23 0.083-0.083 0.030-0.166 0.059-0.251 0.090-4.459 1.594-9.165 2.861-14.114 3.798-3.744 0.71-7.629 1.234-11.653 1.568v41.174h-21.403v-41.094c-4.013-0.296-7.898-0.77-11.653-1.421-7.67-1.331-14.805-3.403-21.402-6.216-1.168-0.499-2.32-1.019-3.454-1.565-0.030-0.014-0.062-0.029-0.094-0.045-13.243-6.242-23.493-15.187-30.749-26.834-0.378-0.616-0.744-1.238-1.101-1.867-6.314-11.115-9.514-24.069-9.598-38.859-0.002-0.203-0.002-0.406-0.002-0.611 0-14.221 2.656-26.339 7.968-36.352 0.722-1.362 1.493-2.683 2.312-3.966 6.704-10.147 16.040-18.675 28.010-25.581 0.072-0.040 0.142-0.082 0.214-0.122 0.45-0.259 0.904-0.515 1.362-0.77 12.869-7.059 28.117-13.371 45.741-18.938 0.302-0.102 0.602-0.203 0.901-0.306 0.088-0.030 0.176-0.061 0.264-0.091 16.654-5.71 29.835-11.552 39.541-17.522 0.211-0.126 0.421-0.251 0.63-0.378 0.034-0.019 0.067-0.040 0.101-0.061 9.182-5.558 15.851-11.754 20.008-18.589 0.026-0.042 0.051-0.083 0.077-0.125 0.202-0.334 0.397-0.67 0.587-1.008 4.277-7.232 6.445-15.784 6.502-25.658 0.002-0.134 0.002-0.27 0.002-0.406 0-10.182-2.658-19.549-7.973-28.101-0.032-0.050-0.062-0.098-0.093-0.146-0.024-0.038-0.048-0.075-0.072-0.114-3.638-5.686-8.373-10.59-14.2-14.715-2.018-1.429-4.166-2.762-6.446-4.003-0.742-0.403-1.499-0.798-2.27-1.182-7.027-3.458-15.141-5.693-24.339-6.704-3.802-0.418-7.787-0.626-11.96-0.626-3.147 0-6.294 0.147-9.442 0.443-5.386 0.506-10.771 1.443-16.157 2.814-1.179 0.299-2.344 0.629-3.498 0.986-0.082 0.026-0.165 0.051-0.246 0.077-4.598 1.445-8.982 3.344-13.155 5.698-2.262 1.278-4.462 2.69-6.6 4.235-0.99 0.73-1.952 1.494-2.888 2.296-5.683 4.858-10.386 11.016-14.109 18.475-0.102 0.206-0.205 0.416-0.307 0.626-0.016 0.034-0.032 0.067-0.048 0.101-4.099 8.57-6.149 19.254-6.149 32.058zM480.717 534.774c6.826-4.080 18.293-9.147 35.67-14.861 4.941-1.563 9.754-3.197 14.435-4.906v24.757c0 7.15-0.994 13.010-2.6 17.845l-0.075 0.224-0.070 0.226c-1.443 4.57-3.438 7.968-5.778 10.646l-0.114 0.13-0.112 0.131c-2.106 2.462-4.627 4.339-7.982 5.768l-0.323 0.138-0.32 0.144c-2.693 1.213-6.874 2.31-13.357 2.31-10.674 0-16.611-1.886-19.69-3.536-4.222-2.262-6.195-4.565-7.379-6.79-1.91-3.592-3.032-7.736-3.032-12.981 0-5.938 1.118-9.626 2.282-11.928 0.269-0.531 1.936-3.288 8.445-7.317zM272 624h144v-32h-144v32zM592 624h160v-32h-160v32z" />
<glyph unicode="&#xe906;" glyph-name="woocommerce-top-rated-products" d="M352 688c0-26.51 21.49-48 48-48s48 21.49 48 48c0 5.61-0.963 10.995-2.731 16h82.731l80-48v-112h-64v-64h34.731c-1.768-5.005-2.731-10.39-2.731-16 0-26.51 21.49-48 48-48s48 21.49 48 48c0 5.61-0.963 10.995-2.731 16h82.731l80-48v-112h-64v-224h-288v224h-224v224h-64v112l80 48h82.731c-1.768-5.005-2.731-10.39-2.731-16zM416 432l80 48h16v96h64v64l-48 32h-49.6c-7.413-36.515-39.696-64-78.4-64s-70.987 27.485-78.4 64h-49.6l-48-32v-64h64v-224h128v80zM448 352h64v-224h224v224h64v64l-48 32h-49.6c-7.413-36.515-39.696-64-78.4-64s-70.987 27.485-78.4 64h-49.6l-48-32v-64zM279.554 928.997l88.446-12.669-64-61.495 15.109-86.834-79.109 40.997-79.109-40.997 15.109 86.834-64 61.495 88.446 12.669 39.554 79.003 39.554-79.003zM313.771 898.959l-50.974 7.301-22.797 45.532-22.797-45.532-50.974-7.301 36.886-35.442-8.709-50.045 45.594 23.629 45.594-23.629-8.709 50.045 36.886 35.442zM551.554 928.997l88.446-12.669-64-61.495 15.109-86.834-79.109 40.997-79.109-40.997 15.109 86.834-64 61.495 88.446 12.669 39.554 79.003 39.554-79.003zM585.771 898.959l-50.974 7.301-22.797 45.532-22.797-45.532-50.974-7.301 36.886-35.442-8.709-50.045 45.594 23.629 45.594-23.629-8.709 50.045 36.886 35.442zM823.554 928.997l88.446-12.669-64-61.495 15.109-86.834-79.109 40.997-79.109-40.997 15.109 86.834-64 61.495 88.446 12.669 39.554 79.003 39.554-79.003zM857.771 898.959l-50.974 7.301-22.797 45.532-22.797-45.532-50.974-7.301 36.886-35.442-8.709-50.045 45.594 23.629 45.594-23.629-8.709 50.045 36.886 35.442z" />
<glyph unicode="&#xe907;" glyph-name="subscribe-form" d="M815.462 538.894c-0.994-23.542-4.47-47.083-10.432-70.626-5.714-23.542-14.408-45.205-26.083-64.99-11.426-19.534-26.206-35.187-44.339-46.958-17.885-11.771-39.371-17.656-64.461-17.656-15.898 0-29.931 2.88-42.104 8.64-11.923 5.76-21.859 14.026-29.808 24.794-7.949 10.77-13.538 23.794-16.766 39.070-3.229 15.526-4.099 32.808-2.608 51.842l18.63 214.13h37.632l-18.63-214.13c-1.739-20.035-0.869-36.189 2.608-48.461 3.478-12.021 8.446-21.288 14.904-27.8 6.459-6.261 13.29-10.518 20.494-12.773 7.451-2.003 14.158-3.005 20.12-3.005 16.643 0 31.299 4.258 43.966 12.773 12.669 8.515 23.475 20.411 32.418 35.688s15.898 33.059 20.866 53.346c4.968 20.285 7.949 42.325 8.942 66.117 1.739 37.818 0 72.629-5.216 104.435-4.968 31.806-13.787 60.107-26.456 84.901-12.667 25.045-29.187 46.206-49.555 63.488-20.37 17.28-44.837 30.429-73.403 39.445-28.318 9.016-60.982 13.525-97.994 13.525-32.045 0-62.101-4.885-90.171-14.651-27.821-9.517-53.157-23.542-76.010-42.075-22.854-18.283-42.726-40.446-59.618-66.493-16.643-26.046-29.931-55.598-39.867-88.658-9.688-32.808-15.402-68.496-17.141-107.066-1.739-37.315 0.498-72.128 6.707-104.435s16.146-61.485 29.808-87.53c13.662-26.046 30.926-48.336 51.792-66.869s45.085-32.683 72.658-42.451c27.821-9.766 58.87-14.651 93.15-14.651 21.859 0 43.966 2.755 66.323 8.266 22.605 5.259 41.483 12.397 56.635 21.413l11.179-30.054c-16.395-11.019-37.509-19.283-63.342-24.794-25.835-5.76-49.93-8.64-72.285-8.64-37.758 0-72.286 5.259-103.584 15.778-31.051 10.269-58.622 25.421-82.718 45.456-23.846 19.786-43.718 43.954-59.616 72.504-15.898 28.301-27.573 60.608-35.024 96.922-7.453 36.315-10.309 76.010-8.571 119.086 1.739 42.075 7.949 81.27 18.63 117.584 10.93 36.315 25.71 68.872 44.341 97.674 18.629 29.051 40.861 53.971 66.694 74.758 25.835 20.786 54.773 36.69 86.818 47.709 32.291 11.020 67.192 16.53 104.701 16.53 39.744 0 75.266-5.134 106.565-15.402 31.547-10.268 58.87-25.17 81.973-44.705 23.349-19.283 42.477-42.826 57.381-70.626 14.904-27.798 25.709-59.355 32.416-94.667 6.707-35.314 9.19-73.882 7.451-115.706zM412.307 506.587c-1.987-19.285-2.112-36.941-0.373-52.97 1.987-16.029 5.714-29.928 11.178-41.699 5.466-11.52 12.794-20.536 21.984-27.048 9.19-6.261 20.12-9.392 32.789-9.392 9.44 0 19.251 1.754 29.435 5.261 10.186 3.755 19.997 9.891 29.437 18.406 9.686 8.515 18.754 20.162 27.2 34.938 8.445 15.027 15.648 33.936 21.61 56.726l18.258-22.917c-5.962-21.288-13.538-39.946-22.728-55.974-8.942-16.027-19.251-29.552-30.926-40.571-11.426-10.77-23.971-18.909-37.632-24.419-13.414-5.509-27.698-8.264-42.85-8.264-17.389 0-32.666 4.006-45.83 12.021s-23.971 19.41-32.416 34.186c-8.197 14.776-13.91 32.434-17.141 52.97-3.229 20.536-3.725 43.453-1.49 68.747 2.235 25.795 6.707 49.587 13.414 71.376 6.955 22.040 15.4 41.574 25.336 58.605 10.184 17.28 21.736 31.931 34.653 43.954 13.165 12.021 27.2 21.162 42.104 27.422 14.904 6.512 30.429 9.768 46.574 9.768 25.090 0 44.837-4.133 59.245-12.397 14.406-8.014 28.069-17.406 40.986-28.176l-25.338-24.794c-7.451 8.515-17.262 15.778-29.435 21.789-11.923 6.011-26.206 9.016-42.85 9.016-15.152 0-29.558-3.632-43.221-10.894-13.662-7.013-26.206-17.907-37.634-32.683-11.178-14.525-20.618-32.808-28.317-54.846-7.701-22.040-13.042-48.086-16.022-78.139z" />
<glyph unicode="&#xe908;" glyph-name="bar-chart" d="M112 832c0 8.837 7.164 16 16 16s16-7.163 16-16v-688h64v384c0 35.346 28.654 64 64 64h64c35.346 0 64-28.654 64-64v-384h64v640c0 35.346 28.654 64 64 64h64c35.346 0 64-28.654 64-64v-640h64v448c0 35.346 28.654 64 64 64h64c35.346 0 64-28.654 64-64v-448h48c8.837 0 16-7.163 16-16s-7.163-16-16-16h-832c-8.836 0-16 7.163-16 16v704zM880 144v448c0 17.674-14.326 32-32 32h-64c-17.674 0-32-14.326-32-32v-448h128zM624 144v640c0 17.674-14.326 32-32 32h-64c-17.674 0-32-14.326-32-32v-640h128zM368 144v384c0 17.674-14.326 32-32 32h-64c-17.674 0-32-14.326-32-32v-384h128z" />
<glyph unicode="&#xe909;" glyph-name="woocommerce-featured-products" d="M793.55 848.714h53.715c28.829 0 51.357-24.109 48.488-51.891l-10.040-97.245c-2.288-22.157-20.4-40.174-44.018-41.694-22.819-1.469-57.237-2.888-88.494-0.914-15.582 0.984-31.013 2.845-44.069 6.208-12.25 3.157-25.899 8.469-33.885 18.779l-3.248 6.043v144l40.608 52.891v57.079c0 7.379 4.955 14.425 12.965 16.612 10.414 2.843 21.122 1.42 30.592-4.331 9.011-5.473 15.957-14.252 21.226-24.775 9.165-18.308 14.878-45.138 16.16-80.761zM745.094 921.069v-46.587l-40.608-47.195v-128.902c2.525-1.426 6.63-3.16 12.997-4.8 10.149-2.614 23.218-4.296 37.832-5.218 29.133-1.84 61.888-0.526 84.229 0.91 7.11 0.458 13.067 5.912 13.843 13.432l10.042 97.245c0.955 9.261-6.554 17.296-16.163 17.296h-85.928v15.733c0 41.637-5.843 68.11-13.179 82.766-1.045 2.087-2.075 3.844-3.064 5.32zM608 840c0 4.418 3.582 8 8 8h16c4.418 0 8-3.582 8-8v-176c0-4.418-3.582-8-8-8h-16c-4.418 0-8 3.582-8 8v176zM306.731 672h-82.731l-80-48v-112h64v-224h224v-224h288v224h64v112l-80 48h-82.731c1.768-5.005 2.731-10.39 2.731-16 0-26.51-21.49-48-48-48s-48 21.49-48 48c0 5.61 0.963 10.995 2.731 16h-34.731v64h64v112l-80 48h-82.731c1.768-5.005 2.731-10.39 2.731-16 0-26.51-21.49-48-48-48s-48 21.49-48 48c0 5.61 0.963 10.995 2.731 16zM368 320h-128v224h-64v64l48 32h49.6c7.413-36.515 39.696-64 78.4-64s70.987 27.485 78.4 64h49.6l48-32v-64h-64v-96h-16l-80-48v-80zM464 320h-64v64l48 32h49.6c7.413-36.515 39.696-64 78.4-64s70.987 27.485 78.4 64h49.6l48-32v-64h-64v-224h-224v224z" />
<glyph unicode="&#xe90a;" glyph-name="section-parallax" d="M619.314 907.314l48-48c6.248-6.248 6.248-16.379 0-22.627s-16.379-6.248-22.627 0l-20.686 20.686v-73.373h80v48c0 35.346 28.654 64 64 64h96c35.346 0 64-28.654 64-64v-48h32c35.346 0 64-28.654 64-64v-432c0-35.346-28.654-64-64-64h-336v-73.373l20.686 20.686c6.248 6.248 16.379 6.248 22.627 0s6.248-16.379 0-22.627l-48-48c-6.248-6.248-16.379-6.248-22.627 0l-48 48c-6.248 6.248-6.248 16.379 0 22.627s16.379 6.248 22.627 0l20.686-20.686v73.373h-80v-48c0-35.346-28.654-64-64-64h-288c-35.346 0-64 28.654-64 64v48h-32c-35.346 0-64 28.654-64 64v432c0 35.346 28.654 64 64 64h528v73.373l-20.686-20.686c-6.248-6.248-16.379-6.248-22.627 0s-6.248 16.379 0 22.627l48 48c6.248 6.248 16.379 6.248 22.627 0zM512 256h448c17.674 0 32 14.326 32 32v432c0 17.674-14.326 32-32 32h-32v-176c0-35.346-28.654-64-64-64h-96c-35.346 0-64 28.654-64 64v176h-640c-17.673 0-32-14.326-32-32v-432c0-17.674 14.327-32 32-32h32v352c0 35.346 28.654 64 64 64h288c35.346 0 64-28.654 64-64v-352zM864 864h-96c-17.674 0-32-14.326-32-32v-256c0-17.674 14.326-32 32-32h96c17.674 0 32 14.326 32 32v256c0 17.674-14.326 32-32 32zM160 640c-17.673 0-32-14.326-32-32v-432c0-17.674 14.327-32 32-32h288c17.674 0 32 14.326 32 32v432c0 17.674-14.326 32-32 32h-288z" />
<glyph unicode="&#xe90b;" glyph-name="testimonials" d="M304.213 648.398c0 0-6.925 9.070-11.026 13.309-18.922 19.861-43.022 31.784-71.275 31.784-4.365 0-8.701-0.218-12.982-0.675 3.453 9.539 8.682 19.166 15.912 28.949l0.11 0.152c14.067 19.267 33.637 33.778 60.106 43.307l21.661 7.8v90.976l-44.821-16.038c-59.093-21.147-105.828-50.33-136.567-89.381-30.117-38.261-45.331-82.018-45.331-130.202 0-40.974 11.035-77.381 36.459-105.72 24.432-27.234 55.697-42.659 92.453-42.659 31.298 0 58.789 11.314 80.509 33.088 13.114 12.954 17.637 18.869 27.958 43.973 0.109 0.269 0.216 0.541 0.318 0.818 5.67-12.757 13.197-24.558 22.762-35.219 20.594-22.955 46.042-37.522 75.541-41.531v32.622c-18.947 3.654-35.749 13.651-50.406 29.989-18.88 21.045-28.322 49.259-28.322 84.64 0 41.176 12.846 78.083 38.536 110.718 5.794 7.36 12.342 14.395 19.648 21.104 18.21 16.723 41.115 31.422 68.717 44.098 8.16 3.747 16.73 7.317 25.71 10.71 2.49 0.941 5.011 1.867 7.563 2.781v-22.418c-32.189-11.59-57.414-29.891-75.677-54.902-0.384-0.52-0.763-1.040-1.139-1.56-13.437-18.603-21.715-37.808-24.837-57.618-0.109-0.698-0.213-1.397-0.31-2.096-0.45-3.235-0.762-6.485-0.936-9.752l-0.024-0.456c-0.096-1.941-0.146-3.886-0.146-5.838 0-5.795 0.93-10.066 2.786-12.81 1.238-1.83 2.632-2.746 4.179-2.746s3.869 1.067 6.963 3.202c9.906 7.016 22.44 10.523 37.606 10.523 17.643 0 33.274-7.168 46.891-21.502 9.798-10.094 16.072-21.61 18.821-34.546l3.376 2.728h27.203c-3.315 16.074-8.792 29.027-11.485 34.254-5.28 10.254-9.43 15.214-13.531 19.453-18.922 19.861-43.022 31.784-71.275 31.784-4.365 0-8.701-0.218-12.982-0.675 3.453 9.539 8.682 19.166 15.912 28.949l0.11 0.152c14.067 19.267 33.637 33.778 60.106 43.307l21.661 7.8v90.976l-44.821-16.038c-59.093-21.147-105.827-50.33-136.566-89.381-26.23-33.322-41.155-70.813-44.571-111.768-0.35 1.030-0.547 1.586-0.547 1.586zM221.912 661.32c17.643 0 33.274-7.168 46.891-21.502 13.619-14.030 20.429-30.806 20.429-50.326 0-20.437-7.893-38.432-23.678-53.987-15.475-15.555-34.355-23.333-56.642-23.333-25.998 0-48.438 10.522-67.319 31.568-18.88 21.045-28.32 49.259-28.32 84.64 0 41.176 12.845 78.083 38.535 110.718 5.794 7.36 12.343 14.395 19.649 21.104 18.21 16.723 41.115 31.422 68.717 44.098 8.16 3.747 16.73 7.317 25.71 10.71 2.49 0.941 5.011 1.867 7.563 2.781v-22.418c-32.189-11.59-57.414-29.891-75.677-54.902-0.384-0.52-0.763-1.040-1.139-1.56-13.437-18.603-21.715-37.808-24.837-57.618-0.109-0.698-0.213-1.397-0.31-2.096-0.45-3.235-0.762-6.485-0.936-9.752l-0.024-0.456c-0.096-1.941-0.146-3.886-0.146-5.838 0-5.795 0.93-10.066 2.786-12.81 1.238-1.83 2.632-2.746 4.179-2.746s3.869 1.067 6.963 3.202c9.906 7.016 22.44 10.523 37.606 10.523zM432.291 409.101c21.181-23.616 47.832-37.518 79.002-37.518 9.114 0 18.030 0.891 26.613 2.808-3.882-17.294-11.629-34.566-23.75-51.978l-0.104-0.152c-17.75-25.811-42.363-45.064-75.128-57.59l-20.486-7.832v-96.838l42.706 16.226c69.376 26.36 123.421 62.438 158.709 110.038 32.258 43.51 49.616 92.698 51.891 146.71 4.541-8.389 9.835-16.512 16.549-23.874 21.181-23.616 47.832-37.518 79.002-37.518 9.114 0 18.030 0.891 26.613 2.808-3.882-17.294-11.629-34.566-23.75-51.978l-0.104-0.152c-17.75-25.811-42.363-45.064-75.128-57.59l-20.486-7.832v-96.838l42.706 16.226c69.376 26.36 123.421 62.438 158.709 110.038 34.688 46.789 52.149 100.144 52.149 159.005 0 50.141-12.69 93.869-41.277 127.704-27.667 32.742-62.741 51.027-103.984 51.027-35.155 0-65.806-13.43-90.098-39.298-16.894-17.712-28.302-38.070-33.587-60.634-6.67 17.949-16.029 34.342-28.331 48.904-27.667 32.742-62.741 51.027-103.984 51.027-35.155 0-65.806-13.43-90.098-39.298-21.848-22.906-34.52-50.238-36.642-81.040 0 0-0.008-36.89 6.594-51.733 6.6-14.843 13.99-29.992 25.698-42.829zM511.293 403.712c-20.962 0-39.533 9.043-55.714 27.128-16.181 17.699-24.272 38.862-24.272 63.488 0 25.781 9.378 48.483 28.133 68.107 18.389 19.624 40.821 29.435 67.299 29.435 30.891 0 57.552-13.275 79.986-39.824 22.432-26.55 33.648-62.142 33.648-106.778 0-51.946-15.261-98.504-45.784-139.675-15.522-20.936-35.606-39.782-60.256-56.541-15.698-10.67-33.245-20.493-52.643-29.47-7.234-3.347-14.725-6.576-22.474-9.688-3.013-1.21-6.064-2.402-9.154-3.574v28.28c25.158 9.619 46.736 22.899 64.734 39.843 9.362 8.814 17.757 18.621 25.181 29.418 19.074 27.398 29.763 55.837 32.070 85.317l0.070 0.93c0.091 1.269 0.166 2.539 0.227 3.811l0.026 0.566c0.102 2.301 0.152 4.606 0.152 6.918 0 7.312-1.102 12.698-3.309 16.162-1.472 2.309-3.126 3.462-4.965 3.462s-4.597-1.347-8.275-4.040c-11.768-8.85-26.661-13.275-44.682-13.275zM767.293 403.712c-20.962 0-39.533 9.043-55.714 27.128-16.181 17.699-24.272 38.862-24.272 63.488 0 25.781 9.378 48.483 28.133 68.107 18.389 19.624 40.821 29.435 67.299 29.435 30.891 0 57.552-13.275 79.986-39.824 22.432-26.55 33.648-62.142 33.648-106.778 0-51.946-15.261-98.504-45.784-139.675-15.522-20.936-35.606-39.782-60.256-56.541-15.698-10.67-33.245-20.493-52.643-29.47-7.234-3.347-14.725-6.576-22.474-9.688-3.013-1.21-6.064-2.402-9.154-3.574v28.28c25.158 9.619 46.736 22.899 64.734 39.843 9.363 8.814 17.757 18.621 25.181 29.418 19.074 27.398 29.763 55.837 32.070 85.317l0.070 0.93c0.091 1.269 0.166 2.539 0.227 3.811l0.026 0.566c0.102 2.301 0.152 4.606 0.152 6.918 0 7.312-1.102 12.698-3.309 16.162-1.472 2.309-3.126 3.462-4.965 3.462s-4.597-1.347-8.275-4.040c-11.768-8.85-26.661-13.275-44.682-13.275z" />
<glyph unicode="&#xe90c;" glyph-name="woocommerce-sale-products" d="M680 816c-30.928 0-56 28.654-56 64s25.072 64 56 64c30.928 0 56-28.654 56-64s-25.072-64-56-64zM680 848c9.374 0 24 10.179 24 32s-14.626 32-24 32c-9.374 0-24-10.18-24-32s14.626-32 24-32zM824 672c-30.928 0-56 28.654-56 64s25.072 64 56 64c30.928 0 56-28.654 56-64s-25.072-64-56-64zM824 704c9.374 0 24 10.179 24 32s-14.626 32-24 32c-9.374 0-24-10.179-24-32s14.626-32 24-32zM672 706.298l128 221.702 27.714-16-128-221.702-27.714 16zM304 688c0-26.51 21.49-48 48-48s48 21.49 48 48c0 5.61-0.963 10.995-2.731 16h82.731l80-48v-112h-64v-64h34.731c-1.768-5.005-2.731-10.39-2.731-16 0-26.51 21.49-48 48-48s48 21.49 48 48c0 5.61-0.963 10.995-2.731 16h82.731l80-48v-112h-64v-224h-288v224h-224v224h-64v112l80 48h82.731c-1.768-5.005-2.731-10.39-2.731-16zM368 432l80 48h16v96h64v64l-48 32h-49.6c-7.413-36.515-39.696-64-78.4-64s-70.987 27.485-78.4 64h-49.6l-48-32v-64h64v-224h128v80zM400 352h64v-224h224v224h64v64l-48 32h-49.6c-7.413-36.515-39.696-64-78.4-64s-70.987 27.485-78.4 64h-49.6l-48-32v-64z" />
<glyph unicode="&#xe90d;" glyph-name="instagram" d="M512 384c-70.693 0-128 57.307-128 128s57.307 128 128 128c70.693 0 128-57.307 128-128s-57.307-128-128-128zM512 416c53.019 0 96 42.981 96 96s-42.981 96-96 96c-53.019 0-96-42.981-96-96s42.981-96 96-96zM720 672c0 26.51-21.49 48-48 48s-48-21.49-48-48c0-26.51 21.49-48 48-48s48 21.49 48 48zM688 672c0-8.837-7.163-16-16-16s-16 7.163-16 16c0 8.837 7.163 16 16 16s16-7.163 16-16zM320 832h384c70.693 0 128-57.307 128-128v-384c0-70.693-57.307-128-128-128h-384c-70.693 0-128 57.307-128 128v384c0 70.693 57.307 128 128 128zM704 800h-384c-53.019 0-96-42.981-96-96v-384c0-53.019 42.981-96 96-96h384c53.019 0 96 42.981 96 96v384c0 53.019-42.981 96-96 96z" />
<glyph unicode="&#xe90e;" glyph-name="woocommerce-recent-products" d="M284 675.2c0-14.133 5.011-26.267 15.032-36.4 10.291-9.867 22.614-14.8 36.968-14.8s26.542 4.933 36.563 14.8c10.291 10.133 15.437 22.267 15.437 36.4 0 3.733 1.219 6.8 3.656 9.2s5.552 3.6 9.344 3.6h65c1.354 0 2.573-0.267 3.656-0.8 1.355-0.267 2.302-0.4 2.843-0.4l65.002-39.6c1.894-1.333 3.384-3.067 4.467-5.2 1.355-1.867 2.032-4 2.032-6.4v-90.533c0-3.734-1.219-6.8-3.656-9.2-2.438-2.4-5.552-3.6-9.344-3.6h-52v-68.267h-32v100.267h65v60.997l-50.45 30.736h-43.717c-3.522-15.101-11.274-28.634-22.819-40.002-16.146-15.896-36.454-23.998-59.014-23.998-22.546 0-42.819 8.078-59.114 23.701l-0.309 0.294-0.299 0.304c-11.242 11.366-18.728 24.8-22.147 39.701h-43.682l-50.45-30.736v-60.997h65v-228.267h127v-14.933c0-3.734 1.219-6.8 3.656-9.2s5.552-3.6 9.344-3.6h52v-4.267h-211c-3.792 0-6.906 1.2-9.344 3.6s-3.656 5.467-3.656 9.2v215.467h-52c-3.792 0-6.906 1.2-9.344 3.6s-3.656 5.466-3.656 9.2v90.533c0 2.4 0.542 4.533 1.625 6.4 1.354 2.133 2.979 3.867 4.875 5.2l64.999 39.6c0.542 0 1.355 0.133 2.438 0.4 1.354 0.533 2.709 0.8 4.062 0.8h65c3.792 0 6.906-1.2 9.344-3.6s3.656-5.467 3.656-9.2zM523.032 414.8c10.291-9.867 22.614-14.8 36.968-14.8s26.542 4.933 36.563 14.8c10.291 10.133 15.437 22.267 15.437 36.4 0 3.733 1.219 6.8 3.656 9.2 2.438 2.4 5.552 3.6 9.344 3.6h65c1.354 0 2.573-0.267 3.656-0.8 1.355-0.267 2.302-0.4 2.843-0.4l65.002-39.6c1.894-1.333 3.384-3.067 4.467-5.2 1.355-1.867 2.032-4 2.032-6.4v-90.533c0-3.734-1.219-6.8-3.656-9.2-2.438-2.4-5.552-3.6-9.344-3.6h-52v-215.467c0-3.733-1.219-6.8-3.656-9.2-2.438-2.4-5.552-3.6-9.344-3.6h-260c-3.792 0-6.906 1.2-9.344 3.6s-3.656 5.467-3.656 9.2v215.467h-52c-3.792 0-6.906 1.2-9.344 3.6s-3.656 5.466-3.656 9.2v90.533c0 2.4 0.542 4.533 1.626 6.4 1.354 2.133 2.979 3.867 4.874 5.2l65.002 39.6c0.541 0 1.354 0.133 2.437 0.4 1.354 0.533 2.709 0.8 4.062 0.8h65c3.792 0 6.906-1.2 9.344-3.6s3.656-5.467 3.656-9.2c0-14.133 5.011-26.267 15.032-36.4zM685.55 432h-43.717c-3.522-15.101-11.274-28.634-22.819-40.002-16.146-15.896-36.454-23.998-59.014-23.998-22.546 0-42.819 8.078-59.114 23.701l-0.309 0.294-0.299 0.304c-11.242 11.366-18.728 24.8-22.147 39.701h-43.682l-50.45-30.736v-60.997h65v-228.267h222v228.267h65v60.997l-50.45 30.736zM736 656c-70.693 0-128 57.307-128 128s57.307 128 128 128c70.693 0 128-57.307 128-128s-57.307-128-128-128zM736 624c88.365 0 160 71.635 160 160s-71.635 160-160 160c-88.365 0-160-71.634-160-160s71.635-160 160-160zM736 880c-8.837 0-16-7.164-16-16v-80c0-8.837 7.163-16 16-16h48c8.837 0 16 7.163 16 16s-7.163 16-16 16h-32v64c0 8.836-7.163 16-16 16z" />
<glyph unicode="&#xe90f;" glyph-name="countdown-timer" d="M480 912h64c26.51 0 48-21.49 48-48s-21.49-48-48-48h-16v-48.374c86.762-4.067 164.918-41.042 222.272-98.723l32.472 32.472-12.802 12.802c-18.746 18.746-18.746 49.138 0 67.883 18.744 18.746 49.136 18.746 67.882 0l45.254-45.254c18.746-18.746 18.746-49.138 0-67.883-18.744-18.746-49.136-18.746-67.882 0l-9.826 9.826-33.611-33.611c47.642-57.994 76.24-132.226 76.24-213.136 0-185.568-150.432-336-336-336s-336 150.432-336 336c0 180.205 141.862 327.275 320 335.626v48.374h-16c-26.51 0-48 21.49-48 48s21.49 48 48 48zM544 880h-64c-8.837 0-16-7.164-16-16s7.163-16 16-16h64c8.837 0 16 7.163 16 16s-7.163 16-16 16zM496 735.586c-160.458-8.32-288-141.058-288-303.586 0-167.894 136.106-304 304-304 162.528 0 295.266 127.542 303.586 288h-319.586v319.586zM815.586 448c-8.045 155.158-132.427 279.541-287.586 287.586v-287.586h287.586zM860.451 714.176l-45.254 45.256c-6.248 6.248-16.379 6.248-22.627 0-6.25-6.25-6.25-16.379 0-22.627l45.254-45.256c6.248-6.248 16.379-6.248 22.627 0 6.248 6.25 6.248 16.379 0 22.627z" />
<glyph unicode="&#xe910;" glyph-name="woocommerce-best-sellers" d="M256 624c0-26.51 21.49-48 48-48s48 21.49 48 48c0 5.61-0.963 10.995-2.731 16h82.731l80-48v-112h-64v-64h34.731c-1.768-5.005-2.731-10.39-2.731-16 0-26.51 21.49-48 48-48s48 21.49 48 48c0 5.61-0.963 10.995-2.731 16h82.731l80-48v-112h-64v-224h-288v224h-224v224h-64v112l80 48h82.731c-1.768-5.005-2.731-10.39-2.731-16zM320 368l80 48h16v96h64v64l-48 32h-49.6c-7.413-36.515-39.696-64-78.4-64s-70.987 27.485-78.4 64h-49.6l-48-32v-64h64v-224h128v80zM352 288h64v-224h224v224h64v64l-48 32h-49.6c-7.413-36.515-39.696-64-78.4-64s-70.987 27.485-78.4 64h-49.6l-48-32v-64zM784.275 860.328l143.725-21.114-104-102.493 24.55-144.722-128.55 68.328-128.55-68.328 24.55 144.722-104 102.493 143.725 21.114 64.275 131.672 64.275-131.672zM860.859 817.158l-97.331 14.298-43.528 89.17-43.528-89.17-97.331-14.298 70.43-69.41-16.627-98.006 87.056 46.274 87.056-46.274-16.627 98.006 70.43 69.41z" />
<glyph unicode="&#xe911;" glyph-name="button" d="M64 816h896c17.674 0 32-14.326 32-32v-416c0-17.674-14.326-32-32-32h-64v-32h64c35.346 0 64 28.654 64 64v416c0 35.346-28.654 64-64 64h-896c-35.346 0-64-28.654-64-64v-416c0-35.346 28.654-64 64-64h608v32h-608c-17.673 0-32 14.326-32 32v416c0 17.674 14.327 32 32 32zM764.965 268.411l-40.106-94.915-55.56 213.202 213.205-55.56-94.907-40.104 84.501-84.501c6.25-6.248 6.25-16.379 0-22.627-6.248-6.248-16.378-6.248-22.627 0l-84.506 84.506zM725.426 172.549l-0.024-0.003zM883.451 330.571l0.003 0.024zM896.773 302.427c27.506 11.622 23.773 51.866-5.52 59.499l-215.629 56.192c-23.123 6.026-43.771-14.622-37.746-37.744l56.192-215.629c7.634-29.293 47.877-33.026 59.499-5.518l22.374 52.95 50.899-50.899c18.746-18.746 49.138-18.746 67.883 0 18.744 18.744 18.744 49.136 0 67.882l-50.896 50.896 52.942 22.371z" />
<glyph unicode="&#xe912;" glyph-name="image-comparison" d="M491.314 587.314c6.248-6.248 6.248-16.379 0-22.627l-36.686-36.686 36.686-36.686c6.248-6.248 6.248-16.379 0-22.627s-16.379-6.248-22.627 0l-46.869 46.869c-6.874 6.874-6.874 18.016 0 24.89l46.869 46.869c6.248 6.248 16.379 6.248 22.627 0zM532.686 564.686c-6.248 6.248-6.248 16.379 0 22.627s16.379 6.248 22.627 0l46.869-46.869c6.874-6.874 6.874-18.016 0-24.89l-46.869-46.869c-6.248-6.248-16.379-6.248-22.627 0s-6.248 16.379 0 22.627l36.686 36.686-36.686 36.686zM0 752c0 35.346 28.654 64 64 64h896c35.346 0 64-28.654 64-64v-448c0-35.346-28.654-64-64-64h-896c-35.346 0-64 28.654-64 64v448zM528 784v-96.79c80.853-8.027 144-76.245 144-159.21s-63.147-151.182-144-159.21v-96.79h432c17.674 0 32 14.326 32 32v448c0 17.674-14.326 32-32 32h-432zM496 784h-432c-17.673 0-32-14.326-32-32v-448c0-17.674 14.327-32 32-32h432v96.79c-80.853 8.027-144 76.245-144 159.21s63.147 151.182 144 159.21v96.79zM512 400c70.693 0 128 57.307 128 128s-57.307 128-128 128c-70.693 0-128-57.307-128-128s57.307-128 128-128z" />
<glyph unicode="&#xe913;" glyph-name="slider" d="M136.562 832c-5.445-9.413-8.562-20.342-8.562-32h-64c-17.673 0-32-14.326-32-32v-368c0-17.674 14.327-32 32-32h64c0-11.658 3.117-22.587 8.562-32h-72.562c-35.346 0-64 28.654-64 64v368c0 35.346 28.654 64 64 64h72.562zM887.438 336h72.562c35.346 0 64 28.654 64 64v368c0 35.346-28.654 64-64 64h-72.562c5.445-9.413 8.562-20.342 8.562-32h64c17.674 0 32-14.326 32-32v-368c0-17.674-14.326-32-32-32h-64c0-11.658-3.117-22.587-8.562-32zM832 832c17.674 0 32-14.326 32-32v-432c0-17.674-14.326-32-32-32h-640c-17.674 0-32 14.326-32 32v432c0 17.674 14.326 32 32 32h640zM192 864c-35.346 0-64-28.654-64-64v-432c0-35.346 28.654-64 64-64h640c35.346 0 64 28.654 64 64v432c0 35.346-28.654 64-64 64h-640zM384 656c0 8.837 7.163 16 16 16h224c8.837 0 16-7.163 16-16s-7.163-16-16-16h-224c-8.837 0-16 7.163-16 16zM384 592c0 8.837 7.163 16 16 16h224c8.837 0 16-7.163 16-16s-7.163-16-16-16h-224c-8.837 0-16 7.163-16 16zM448 528c0 8.837 7.163 16 16 16h96c8.837 0 16-7.163 16-16s-7.163-16-16-16h-96c-8.837 0-16 7.163-16 16zM464 192c0-8.837-7.163-16-16-16s-16 7.163-16 16c0 8.837 7.163 16 16 16s16-7.163 16-16zM528 192c0-8.837-7.163-16-16-16s-16 7.163-16 16c0 8.837 7.163 16 16 16s16-7.163 16-16zM592 192c0-8.837-7.163-16-16-16s-16 7.163-16 16c0 8.837 7.163 16 16 16s16-7.163 16-16z" />
<glyph unicode="&#xe914;" glyph-name="contact-form-7" d="M144 800c-17.673 0-32-14.326-32-32v-54.44l400.008-215.389 399.992 215.381v54.448c0 17.674-14.326 32-32 32h-736zM112 677.216v-421.216c0-17.674 14.327-32 32-32h736c17.674 0 32 14.326 32 32v421.208l-392.406-211.296c-4.736-2.55-10.437-2.55-15.171 0l-392.422 211.304zM80 768c0 35.346 28.654 64 64 64h736c35.346 0 64-28.654 64-64v-512c0-35.346-28.654-64-64-64h-736c-35.346 0-64 28.654-64 64v512z" />
<glyph unicode="&#xe915;" glyph-name="banner" d="M0 784v-192c0-35.346 28.654-64 64-64h544c35.346 0 64 28.654 64 64v192c0 35.346-28.654 64-64 64h-544c-35.346 0-64-28.654-64-64zM64 816h544c17.674 0 32-14.326 32-32v-192c0-17.674-14.326-32-32-32h-544c-17.673 0-32 14.326-32 32v192c0 17.674 14.327 32 32 32zM768 848c-35.346 0-64-28.654-64-64v-192c0-35.346 28.654-64 64-64h192c35.346 0 64 28.654 64 64v192c0 12.41-3.533 23.995-9.646 33.805-5.72 9.178-13.701 16.802-23.162 22.093-9.229 5.162-19.867 8.102-31.192 8.102h-192zM768 816h63.53l-95.53-95.53v63.53c0 17.674 14.326 32 32 32zM876.784 816h83.216c2.266 0 4.477-0.235 6.61-0.683l-229.926-229.926c-0.448 2.133-0.683 4.344-0.683 6.61v83.216l140.784 140.784zM768 560c-3.453 0-6.778 0.547-9.893 1.558l232.334 232.334c1.011-3.115 1.558-6.44 1.558-9.893v-79.059l-144.941-144.941h-79.059zM892.314 560l99.686 99.686v-67.686c0-17.674-14.326-32-32-32h-67.686zM0 432v-192c0-35.346 28.654-64 64-64h896c35.346 0 64 28.654 64 64v192c0 35.346-28.654 64-64 64h-896c-35.346 0-64-28.654-64-64zM64 464h896c17.674 0 32-14.326 32-32v-192c0-17.674-14.326-32-32-32h-896c-17.673 0-32 14.326-32 32v192c0 17.674 14.327 32 32 32z" />
<glyph unicode="&#xe916;" glyph-name="headline" d="M219.411 462.858l69.88 191.432c5.107 13.994 24.838 14 29.957 0.010l70.024-191.43c3.819-10.443-3.886-21.512-14.976-21.512h-139.906c-11.085 0-18.79 11.061-14.979 21.501zM304.286 601.946l-46.978-128.693h94.053l-47.075 128.693zM649.16 441.357h139.904c11.091 0 18.797 11.069 14.978 21.512l-70.026 191.43c-5.117 13.99-24.848 13.984-29.957-0.010l-69.88-191.432c-3.811-10.44 3.896-21.501 14.981-21.501zM672.077 473.253l46.979 128.693 47.075-128.693h-94.054zM470.67 208c-13.384 0-25.344 8.378-29.954 20.978l-44.418 121.429h-183.834l-44.32-121.408c-4.603-12.611-16.569-20.998-29.96-20.998h-74.25c-22.386 0-37.812 22.518-29.783 43.477l208.398 544c4.738 12.363 16.578 20.523 29.784 20.523h63.811c13.192 0 25.024-8.142 29.77-20.486l145.971-379.675 145.434 379.638c4.736 12.363 16.578 20.523 29.782 20.523h63.813c13.192 0 25.022-8.142 29.77-20.486l209.149-544c8.059-20.965-7.366-43.514-29.77-43.514h-74.626c-13.382 0-25.342 8.378-29.952 20.978l-44.419 121.429h-183.834l-44.318-121.408c-4.603-12.611-16.57-20.998-29.96-20.998h-82.285zM325.035 784.106h-41.576c-6.603 0-12.523-4.080-14.891-10.262l-196.22-512.21c-4.014-10.48 3.698-21.739 14.891-21.739h39.634c6.695 0 12.678 4.194 14.98 10.499l44.318 121.41c2.302 6.306 8.285 10.499 14.981 10.499h206.451c6.691 0 12.672-4.189 14.978-10.49l35.384-96.733 36.794 96.045-154.838 402.736c-2.373 6.173-8.29 10.245-14.885 10.245zM754.688 773.861c-2.373 6.173-8.288 10.245-14.883 10.245h-41.578c-6.602 0-12.523-4.080-14.891-10.262l-196.219-512.21c-4.014-10.48 3.698-21.739 14.891-21.739h39.634c6.696 0 12.678 4.194 14.981 10.499l44.318 121.41c2.302 6.306 8.285 10.499 14.981 10.499h206.451c6.691 0 12.672-4.189 14.976-10.49l44.419-121.429c2.304-6.301 8.285-10.49 14.976-10.49h39.987c11.202 0 18.915 11.275 14.885 21.757l-196.928 512.21z" />
<glyph unicode="&#xe917;" glyph-name="woocommerce-product" d="M326.374 782.867c-1.499-0.378-2.624-0.566-3.374-0.566l-90-56.101c-2.626-1.89-4.875-4.344-6.75-7.366-1.499-2.645-2.25-5.667-2.25-9.067v-128.256c0-5.288 1.688-9.632 5.062-13.032s7.688-5.101 12.938-5.101h72v-305.245c0-5.288 1.688-9.634 5.062-13.034s7.688-5.099 12.938-5.099h360c5.25 0 9.563 1.699 12.938 5.099s5.062 7.746 5.062 13.034v305.245h72c5.25 0 9.563 1.701 12.938 5.101s5.062 7.744 5.062 13.032v128.256c0 3.4-0.938 6.422-2.813 9.067-1.499 3.022-3.562 5.477-6.187 7.366l-90 56.101c-0.75 0-2.062 0.189-3.938 0.566-1.499 0.755-3.187 1.133-5.062 1.133h-90c-5.25 0-9.563-1.699-12.938-5.099s-5.062-7.746-5.062-13.034c0-20.022-7.125-37.211-21.374-51.566-13.875-13.979-30.75-20.968-50.626-20.968s-36.938 6.989-51.187 20.968c-13.875 14.355-20.813 31.544-20.813 51.566 0 5.288-1.688 9.634-5.062 13.034s-7.688 5.099-12.938 5.099h-90c-1.875 0-3.75-0.378-5.626-1.133zM688.246 752l1.285-0.259 78.469-48.912v-107.451h-90v-323.378h-332v323.378h-90v107.451l78.883 49.171h73.958c2.8-22.675 12.574-42.984 28.962-59.939l0.296-0.307 0.306-0.298c20.203-19.818 45.299-30.123 73.595-30.123 28.315 0 53.392 10.331 73.336 30.424 16.808 16.933 26.926 37.341 29.808 60.243h73.102z" />
<glyph unicode="&#xe918;" glyph-name="audio-player" d="M760 939.2c3.2 3.2 6.4 4.8 11.2 4.8 3.2 0 8-1.6 9.6-3.2 3.2-3.2 4.8-6.4 4.8-11.2v-27.2c1.798-0.36 3.838-0.719 6.085-1.115 7.749-1.366 17.952-3.164 29.115-6.885 14.4-4.8 28.8-11.2 44.8-20.8s30.4-22.4 44.8-38.4c14.4-17.6 25.6-38.4 33.6-64 1.6-3.2 1.6-6.4 0-9.6s-3.2-6.4-4.8-8c0 0-1.6-1.6-3.2-1.6-1.6-1.6-3.2-1.6-4.8-1.6h-4.8c-1.6 0-3.2 1.6-3.2 1.6-14.4 8-30.4 14.4-44.8 17.6s-27.2 4.8-40 6.4c-6.4 1.6-12.8 1.6-19.2 1.6h-12.8c-4.096-0.683-7.899-1.074-11.288-1.422-4.555-0.469-8.36-0.861-11.112-1.778v-220.8c0-25.6-8-46.4-25.6-64s-38.4-27.2-62.4-27.2c-24 0-44.8 9.6-62.4 27.2s-25.6 38.4-25.6 64c0 25.6 8 46.4 25.6 64s38.4 27.2 62.4 27.2c11.2 0 22.4-3.2 32-6.4 9.6-4.8 19.2-9.6 27.2-17.6v307.2c0 4.8 1.6 8 4.8 11.2zM790.4 868.299v-58.699c2.227 0 4.456 0.344 6.843 0.714 2.757 0.427 5.726 0.886 9.157 0.886h16c4 0 7.6-0.4 11.2-0.8s7.2-0.8 11.2-0.8c14.4-1.6 28.8-3.2 44.8-8 1.6-0.8 3.2-1.2 4.8-1.6s3.2-0.8 4.8-1.6l-9.6 14.4c-12.8 12.8-25.6 24-38.4 32-14.4 8-27.2 14.4-38.4 17.6-5.6 1.6-10.4 2.8-14.4 3.8-3.168 0.792-5.835 1.459-8 2.099zM718.4 608c-6.4 1.6-12.8 3.2-20.8 3.2-16 0-28.8-4.8-40-14.4-11.2-12.8-16-24-16-41.6s4.8-30.4 16-41.6c11.2-12.8 24-17.6 40-17.6 14.4 0 27.2 6.4 38.4 17.6 12.8 12.8 17.6 25.6 17.6 41.6v25.6l-19.2 17.6c-4.8 4.8-9.6 8-16 9.6zM240 560h288c4.8 0 8-1.6 11.2-4.8s4.8-6.4 4.8-11.2v-320c0-22.4-8-41.6-24-57.6-14.4-14.4-33.6-22.4-56-22.4s-41.6 6.4-57.6 22.4c-14.4 16-22.4 35.2-22.4 57.6s6.4 40 22.4 56c16 16 35.2 24 57.6 24 8 0 17.6-1.6 25.6-4.8s16-6.4 22.4-11.2v128h-256v-240c0-22.4-8-41.6-24-57.6-14.4-14.4-33.6-22.4-56-22.4s-41.6 6.4-57.6 22.4c-14.4 16-22.4 35.2-22.4 57.6s6.4 40 22.4 56c16 16 35.2 24 57.6 24 8 0 17.6-1.6 25.6-4.8s16-6.4 22.4-11.2v304c0 4.8 1.6 8 4.8 11.2s6.4 4.8 11.2 4.8zM512 448v80h-256v-80h256zM478.4 268.8c-4.8 1.6-9.6 3.2-14.4 3.2-14.4 0-24-4.8-33.6-14.4s-14.4-19.2-14.4-33.6c0-14.4 4.8-25.6 14.4-35.2 8-8 19.2-12.8 33.6-12.8s24 4.8 33.6 14.4c9.6 9.6 14.4 19.2 14.4 33.6v24l-19.2 14.4c-2.4 0.8-4.8 2-7.2 3.2s-4.8 2.4-7.2 3.2zM190.4 220.8c-4.8 1.6-9.6 3.2-14.4 3.2-14.4 0-24-4.8-33.6-14.4s-14.4-19.2-14.4-33.6c0-14.4 4.8-25.6 14.4-35.2 8-8 19.2-12.8 33.6-12.8s24 4.8 33.6 14.4c9.6 9.6 14.4 19.2 14.4 33.6v24l-19.2 14.4c-2.4 0.8-4.8 2-7.2 3.2s-4.8 2.4-7.2 3.2z" />
<glyph unicode="&#xe919;" glyph-name="images-layout" d="M288 840c0 30.928-25.072 56-56 56s-56-25.072-56-56c0-30.928 25.072-56 56-56s56 25.072 56 56zM256 840c0-13.254-10.746-24-24-24s-24 10.746-24 24c0 13.254 10.746 24 24 24s24-10.746 24-24zM304 713.373l68.686-68.686c6.248-6.248 16.379-6.248 22.627 0s6.248 16.379 0 22.627l-78.869 78.869c-6.874 6.874-18.016 6.874-24.89 0l-67.555-67.555-33.373 33.373c-12.496 12.496-32.758 12.496-45.255 0l-44.686-44.686c-6.248-6.248-6.248-16.379 0-22.627s16.379-6.248 22.628 0l44.686 44.686 43.555-43.555c6.874-6.874 18.016-6.874 24.89 0l67.555 67.555zM0 960v-368c0-35.346 28.654-64 64-64h368c35.346 0 64 28.654 64 64v368c0 35.346-28.654 64-64 64h-368c-35.346 0-64-28.654-64-64zM64 992h368c17.674 0 32-14.327 32-32v-368c0-17.674-14.326-32-32-32h-368c-17.673 0-32 14.326-32 32v368c0 17.673 14.327 32 32 32zM816 840c0 30.928-25.072 56-56 56s-56-25.072-56-56c0-30.928 25.072-56 56-56s56 25.072 56 56zM784 840c0-13.254-10.746-24-24-24s-24 10.746-24 24c0 13.254 10.746 24 24 24s24-10.746 24-24zM832 713.373l68.686-68.686c6.248-6.248 16.379-6.248 22.627 0s6.248 16.379 0 22.627l-78.869 78.869c-6.874 6.874-18.016 6.874-24.89 0l-67.555-67.555-33.373 33.373c-12.496 12.496-32.758 12.496-45.254 0l-44.686-44.686c-6.248-6.248-6.248-16.379 0-22.627s16.379-6.248 22.627 0l44.686 44.686 43.555-43.555c6.874-6.874 18.016-6.874 24.89 0l67.555 67.555zM528 960v-368c0-35.346 28.654-64 64-64h368c35.346 0 64 28.654 64 64v368c0 35.346-28.654 64-64 64h-368c-35.346 0-64-28.654-64-64zM592 992h368c17.674 0 32-14.327 32-32v-368c0-17.674-14.326-32-32-32h-368c-17.674 0-32 14.326-32 32v368c0 17.673 14.326 32 32 32zM504 256c-30.928 0-56 25.072-56 56s25.072 56 56 56c30.928 0 56-25.072 56-56s-25.072-56-56-56zM504 288c13.254 0 24 10.746 24 24s-10.746 24-24 24c-13.254 0-24-10.746-24-24s10.746-24 24-24zM644.686 116.686l-68.686 68.686-67.555-67.555c-6.874-6.874-18.016-6.874-24.89 0l-43.555 43.555-44.686-44.686c-6.248-6.248-16.379-6.248-22.627 0s-6.248 16.379 0 22.627l44.686 44.686c12.496 12.496 32.758 12.496 45.254 0l33.373-33.373 67.555 67.555c6.874 6.874 18.016 6.874 24.89 0l78.869-78.869c6.248-6.248 6.248-16.379 0-22.627s-16.379-6.248-22.627 0zM336 496h368c35.346 0 64-28.654 64-64v-368c0-35.346-28.654-64-64-64h-368c-35.346 0-64 28.654-64 64v368c0 35.346 28.654 64 64 64zM704 464h-368c-17.674 0-32-14.326-32-32v-368c0-17.674 14.326-32 32-32h368c17.674 0 32 14.326 32 32v368c0 17.674-14.326 32-32 32z" />
<glyph unicode="&#xe91a;" glyph-name="services" d="M612.974 843.566l-34.802 34.8c5.643 1.081 11.52 1.633 17.653 1.633 13.894 0 26.818-2.605 38.922-7.747 12.035-5.241 22.552-12.396 31.656-21.5 9.062-9.062 16.219-19.699 21.475-32.053l0.050-0.114c5.109-11.749 7.722-24.494 7.722-38.413 0-5.638-0.509-11.294-1.539-16.979-0.41-2.146-0.878-4.267-1.405-6.368-3.056-12.19 0.549-26.403 11.93-34.939l202.461-151.845c2.941-2.173 4.549-4.83 4.858-9.462l0.002-0.037c0.296-4.278-0.837-7.096-3.494-9.755l-83.25-83.25c-2.659-2.658-5.477-3.79-9.755-3.494l-0.037 0.002c-4.632 0.309-7.29 1.917-9.462 4.858l-151.845 202.461c-8.536 11.381-22.749 14.987-34.939 11.93-2.099-0.526-4.222-0.995-6.368-1.405-5.685-1.030-11.341-1.539-16.979-1.539-13.918 0-26.664 2.613-38.413 7.722l-0.115 0.050c-12.352 5.256-22.989 12.413-32.051 21.475-9.104 9.104-16.259 19.621-21.499 31.656-5.142 12.104-7.747 25.027-7.747 38.922 0 5.898 0.51 11.558 1.51 17.002l34.598-34.357c12.475-12.387 32.608-12.392 45.088-0.008l35.69 35.413c12.579 12.482 12.619 32.811 0.088 45.342zM595.826 912c-9.574 0-18.907-1.024-27.966-3.11-0.478-0.106-0.955-0.215-1.43-0.326-11.845-2.768-19.547-11.776-21.765-22.021-2.15-9.938 0.83-20.753 8.613-28.533l37.070-37.070-35.69-35.413-36.555 36.299c-7.966 7.91-18.984 10.76-28.989 8.454-10.256-2.363-19.245-10.182-21.989-22.075-2.096-9.080-3.125-18.434-3.125-28.030 0-18.056 3.419-35.277 10.326-51.509l0.050-0.115c6.822-15.69 16.248-29.586 28.243-41.581 12.038-12.038 26.115-21.462 42.091-28.269 15.984-6.941 33.082-10.35 51.115-10.35 7.611 0 15.205 0.691 22.77 2.067l0.131 0.024c2.766 0.528 5.51 1.131 8.23 1.814 0.565 0.141 1.050 0.091 1.342-0.003 0.134-0.042 0.202-0.085 0.218-0.096l151.741-202.32c8.077-10.901 19.576-16.818 33.014-17.718 13.21-0.906 25.163 3.392 34.566 12.794l83.25 83.25c9.397 9.398 13.696 21.346 12.794 34.547-0.896 13.446-6.813 24.954-17.718 33.034l-0.046 0.035-202.274 151.706c-0.006 0.010-0.026 0.040-0.050 0.091-0.014 0.034-0.030 0.075-0.046 0.126-0.094 0.293-0.144 0.778-0.003 1.342 0.683 2.72 1.288 5.464 1.814 8.23l0.024 0.131c1.376 7.565 2.067 15.158 2.067 22.77 0 18.034-3.41 35.13-10.35 51.115-6.806 15.976-16.23 30.053-28.269 42.091-11.995 11.996-25.891 21.422-41.581 28.244l-0.115 0.049c-16.232 6.907-33.453 10.326-51.509 10.326zM433.704 558.554l-0.498 0.219c-3.904 1.717-7.824 3.208-11.762 4.477-18.771 6.053-34.445 23.68-34.445 46.573v30.178h-38v-30.178c0-22.893-15.674-40.52-34.445-46.573-3.938-1.269-7.858-2.76-11.762-4.477l-0.498-0.219-0.506-0.202c-4.291-1.717-8.469-3.573-12.538-5.568-17.749-8.706-40.558-6.483-56.074 9.032l-21.366 21.366-26.995-26.995 21.366-21.366c15.45-15.45 17.914-38.432 8.746-56.453-2.091-4.109-4.094-8.326-6.010-12.654-1.539-3.888-2.912-7.808-4.117-11.758-5.896-19.325-23.819-34.955-46.625-34.955h-30.178v-38h30.178c22.806 0 40.729-15.63 46.625-34.955 1.205-3.95 2.578-7.87 4.117-11.757 1.915-4.33 3.918-8.547 6.010-12.656 9.168-18.021 6.704-41.003-8.746-56.453l-21.366-21.366 26.995-26.995 21.366 21.366c15.45 15.45 38.432 17.914 56.453 8.746 4.109-2.091 8.326-4.094 12.654-6.010 3.888-1.539 7.808-2.912 11.758-4.117 19.325-5.896 34.955-23.819 34.955-46.626v-30.178h38v30.178c0 22.806 15.63 40.73 34.955 46.626 3.95 1.205 7.87 2.578 11.758 4.117 4.328 1.915 8.546 3.918 12.654 6.010 18.021 9.168 41.003 6.704 56.453-8.746l21.366-21.366 26.995 26.995-21.366 21.366c-15.515 15.515-17.738 38.325-9.032 56.074 1.994 4.069 3.851 8.246 5.568 12.538l0.202 0.506 0.219 0.498c1.717 3.904 3.208 7.824 4.477 11.762 6.053 18.771 23.68 34.445 46.573 34.445h30.178v38h-30.178c-22.893 0-40.52 15.674-46.573 34.445-1.269 3.938-2.76 7.858-4.477 11.762l-0.219 0.498-0.202 0.506c-1.717 4.291-3.574 8.469-5.568 12.538-8.706 17.749-6.483 40.558 9.032 56.074l21.366 21.366-26.995 26.995-21.366-21.366c-15.515-15.515-38.325-17.738-56.074-9.032-4.069 1.995-8.246 3.851-12.538 5.568l-0.506 0.202zM446.094 211.406c-4.88-1.952-9.814-3.69-14.802-5.211-7.126-2.173-12.293-8.566-12.293-16.018v-46.178c0-8.837-7.163-16-16-16h-70c-8.837 0-16 7.163-16 16v46.178c0 7.451-5.166 13.845-12.293 16.018-4.987 1.522-9.922 3.259-14.802 5.211-5.042 2.219-9.971 4.552-14.784 7.002-6.405 3.259-14.232 2.23-19.315-2.851l-32.68-32.68c-6.248-6.25-16.379-6.25-22.627 0l-49.623 49.622c-6.248 6.248-6.248 16.379 0 22.627l32.681 32.68c5.082 5.083 6.11 12.91 2.851 19.315-2.45 4.813-4.782 9.742-7.002 14.784-1.952 4.88-3.69 9.814-5.211 14.802-2.173 7.126-8.566 12.293-16.017 12.293h-46.178c-8.836 0-16 7.163-16 16v70c0 8.837 7.164 16 16 16h46.178c7.451 0 13.844 5.166 16.017 12.293 1.522 4.987 3.259 9.922 5.211 14.802 2.219 5.042 4.552 9.971 7.002 14.784 3.259 6.405 2.23 14.232-2.851 19.315l-32.681 32.68c-6.248 6.248-6.248 16.379 0 22.627l49.623 49.622c6.248 6.25 16.379 6.25 22.627 0l32.68-32.68c5.083-5.082 12.904-6.094 19.357-2.93 4.8 2.355 9.714 4.538 14.742 6.549 4.89 2.152 9.832 4.032 14.829 5.643 7.091 2.286 12.266 8.666 12.266 16.117v46.178c0 8.837 7.163 16 16 16h70c8.837 0 16-7.163 16-16v-46.178c0-7.451 5.174-13.83 12.266-16.117 4.997-1.611 9.939-3.491 14.829-5.643 5.029-2.011 9.942-4.194 14.742-6.549 6.453-3.165 14.274-2.152 19.357 2.93l32.68 32.68c6.248 6.25 16.379 6.25 22.627 0l49.622-49.622c6.25-6.248 6.25-16.379 0-22.627l-32.68-32.68c-5.082-5.083-6.094-12.904-2.93-19.357 2.355-4.8 4.538-9.714 6.549-14.742 2.152-4.89 4.032-9.832 5.643-14.829 2.286-7.091 8.666-12.266 16.117-12.266h46.178c8.837 0 16-7.163 16-16v-70c0-8.837-7.163-16-16-16h-46.178c-7.451 0-13.83-5.174-16.117-12.266-1.611-4.997-3.491-9.939-5.643-14.829-2.011-5.029-4.194-9.942-6.549-14.742-3.165-6.453-2.152-14.274 2.93-19.357l32.68-32.68c6.25-6.248 6.25-16.379 0-22.627l-49.622-49.622c-6.248-6.25-16.379-6.25-22.627 0l-32.68 32.68c-5.083 5.082-12.91 6.11-19.315 2.851-4.813-2.45-9.742-4.782-14.784-7.002zM368 283c-31.93 0-60.059 11.742-82.659 34.341-22.598 22.6-34.341 50.73-34.341 82.659s11.742 60.059 34.341 82.659c22.6 22.598 50.73 34.341 82.659 34.341s60.059-11.742 82.659-34.341c22.598-22.6 34.341-50.73 34.341-82.659s-11.742-60.059-34.341-82.659c-22.6-22.598-50.73-34.341-82.659-34.341zM307.968 339.968c16.646-16.645 36.658-24.968 60.032-24.968s43.386 8.323 60.032 24.968c16.645 16.646 24.968 36.658 24.968 60.032s-8.323 43.386-24.968 60.032c-16.646 16.645-36.658 24.968-60.032 24.968s-43.386-8.323-60.032-24.968c-16.645-16.646-24.968-36.658-24.968-60.032s8.323-43.386 24.968-60.032z" />
<glyph unicode="&#xe91b;" glyph-name="video-player" d="M192 816v-80h192v80h-192zM416 736h80v80h-80v-80zM528 736h304v80h-304v-80zM944 736v48c0 17.674-14.326 32-32 32h-48v-80h80zM160 816h-48c-17.673 0-32-14.326-32-32v-48h80v80zM976 784v-544c0-35.346-28.654-64-64-64h-800c-35.346 0-64 28.654-64 64v544c0 35.346 28.654 64 64 64h800c35.346 0 64-28.654 64-64zM944 704h-864v-384h864v384zM80 288v-48c0-17.674 14.327-32 32-32h48v80h-80zM384 208v80h-192v-80h192zM416 208h80v80h-80v-80zM832 208v80h-304v-80h304zM864 208h48c17.674 0 32 14.326 32 32v48h-80v-80zM448 588.014c0 3.302 3.25 4.726 5.442 3.507l136.56-76.014c1.29-0.718 1.998-1.933 1.998-3.507s-0.709-2.789-1.998-3.507l-136.56-76.014c-2.192-1.219-5.442 0.205-5.442 3.507v152.029zM469.005 619.482c-24.093 13.411-53.005-4.411-53.005-31.467v-152.029c0-27.056 28.912-44.878 53.005-31.467l136.56 76.014c24.581 13.682 24.581 49.253 0 62.934l-136.56 76.014zM304 816h-32v-80h32v80zM304 288h-32v-80h32v80zM608 816h32v-80h-32v80zM640 288h-32v-80h32v80zM720 816h32v-80h-32v80zM752 288h-32v-80h32v80z" />
<glyph unicode="&#xe91c;" glyph-name="download-button" d="M64 816h896c17.674 0 32-14.326 32-32v-416c0-17.674-14.326-32-32-32h-64v-32h64c35.346 0 64 28.654 64 64v416c0 35.346-28.654 64-64 64h-896c-35.346 0-64-28.654-64-64v-416c0-35.346 28.654-64 64-64h608v32h-608c-17.673 0-32 14.326-32 32v416c0 17.674 14.327 32 32 32zM764.965 268.411l-40.106-94.915-55.56 213.202 213.205-55.56-94.907-40.104 84.501-84.501c6.25-6.248 6.25-16.379 0-22.627-6.248-6.248-16.378-6.248-22.627 0l-84.506 84.506zM725.426 172.549l-0.024-0.003zM883.451 330.571l0.003 0.024zM896.773 302.427c27.506 11.622 23.773 51.866-5.52 59.499l-215.629 56.192c-23.123 6.026-43.771-14.622-37.746-37.744l56.192-215.629c7.634-29.293 47.877-33.026 59.499-5.518l22.374 52.95 50.899-50.899c18.746-18.746 49.138-18.746 67.883 0 18.744 18.744 18.744 49.136 0 67.882l-50.896 50.896 52.942 22.371zM512 704c8.837 0 16-6.971 16-15.57v-164.822l52.686 51.272c6.248 6.080 16.379 6.080 22.627 0 6.248-6.082 6.248-15.939 0-22.021l-91.314-88.859-91.314 88.859c-6.248 6.082-6.248 15.939 0 22.021 6.248 6.080 16.379 6.080 22.627 0l52.686-51.272v164.822c0 8.598 7.163 15.57 16 15.57z" />
<glyph unicode="&#xe91d;" glyph-name="team-member" d="M640 800c0-70.693-57.307-128-128-128h-128c0 70.693 57.307 128 128 128h128zM512 832c-88.365 0-160-71.635-160-160v-32h160c88.365 0 160 71.635 160 160v32h-160zM128 400v-64c0-35.346 28.654-64 64-64 12.523 0 24.205 3.597 34.072 9.813-1.363-8.403-2.072-17.026-2.072-25.813v-16h-128c-35.346 0-64-28.654-64-64v-144h192v-32h-224v176c0 53.019 42.981 96 96 96h24.445c-15.201 16.984-24.445 39.413-24.445 64v96c0 5.384 0.443 10.666 1.296 15.81l0.032 0.19c7.617 45.403 47.105 80 94.673 80h96v-32c0-11.221-1.925-21.99-5.462-32 3.538-10.010 5.462-20.779 5.462-32v-47.989c-12.115-9.101-22.898-19.88-32-31.995v72.429c-16.984-15.202-39.413-24.445-64-24.445h-64zM256 496h-64c-29.821 0-54.879-20.397-61.984-48-1.315-5.112-2.016-10.477-2.016-16h64c35.346 0 64 28.654 64 64zM768 352.016c-9.102 12.115-19.885 22.894-32 31.995v47.989c0 5.384 0.443 10.666 1.296 15.81l0.032 0.19c7.616 45.403 47.104 80 94.672 80h96v-32c0-11.221-1.925-21.99-5.462-32 3.538-10.010 5.462-20.779 5.462-32v-96c0-24.587-9.243-47.016-24.445-64h24.445c53.019 0 96-42.981 96-96v-176h-224v32h192v144c0 35.346-28.654 64-64 64h-128v16c0 8.787-0.709 17.41-2.072 25.813 9.867-6.216 21.549-9.813 34.072-9.813 35.346 0 64 28.654 64 64v88.445c-16.984-15.202-39.413-24.445-64-24.445h-64v-47.984zM896 496h-64c-29.821 0-54.878-20.397-61.984-48-1.315-5.112-2.016-10.477-2.016-16h64c35.346 0 64 28.654 64 64zM355.2 704c-2.098-10.339-3.2-21.042-3.2-32v-128c0-88.365 71.635-160 160-160s160 71.635 160 160v128c0 36.027-11.907 69.272-32 96.016v-64.016h-4.032c2.632-10.227 4.032-20.95 4.032-32v-128c0-70.693-57.307-128-128-128s-128 57.307-128 128v128c0 11.050 1.4 21.773 4.032 32h-32.832zM432 384v-16c0-44.182 35.818-80 80-80s80 35.818 80 80v16h-32v-16c0-26.51-21.49-48-48-48s-48 21.49-48 48v16h-32zM464 416h-80c-88.365 0-160-71.635-160-160v-256h576v256c0 88.365-71.635 160-160 160h-80v-32h80c70.693 0 128-57.307 128-128v-224h-512v224c0 70.693 57.307 128 128 128h80v32z" />
<glyph unicode="&#xe91e;" glyph-name="pie-chart" d="M288 256c1.306 0 2.61 0.010 3.912 0.029 36.971 0.563 73.52 9.133 107.075 25.274 17.126 8.238 33.197 18.315 47.957 30.003 16.566 13.139 31.47 28.285 44.341 45.072 0.426 0.557 0.85 1.115 1.27 1.675l0.002-0.002c-22.829 36.022-37.882 77.458-42.798 121.949h-146.349l-148.932-186.411c31.751-19.413 67.471-31.739 104.704-35.96 9.219-1.045 18.459-1.584 27.678-1.626l1.139-0.003zM736 224c-90.472 0-171.2 41.717-223.998 106.963-12.986-16.067-27.645-30.667-43.709-43.562-48.328-38.845-109.458-62.411-176.059-63.371-1.408-0.021-2.819-0.030-4.234-0.030l-1.424 0.003c-158.403 0.768-286.576 129.414-286.576 287.997 0 159.058 128.942 288 288 288 90.472 0 171.202-41.717 224-106.965 52.798 65.248 133.528 106.965 224 106.965 159.058 0 288-128.942 288-288s-128.942-288-288-288zM32 512c0-80.942 37.565-153.11 96.212-200.021l159.804 200.021h159.984c0 56.618 16.338 109.421 44.557 153.949-46.722 61.981-120.96 102.051-204.557 102.051-141.385 0-256-114.614-256-256zM991.509 496h-271.509v271.509c-133.931-8.259-240-119.498-240-255.509 0-141.386 114.614-256 256-256 136.011 0 247.25 106.069 255.509 240zM991.509 528c-7.933 128.64-110.869 231.576-239.509 239.509v-239.509h239.509z" />
<glyph unicode="&#xe91f;" glyph-name="table" d="M64 816c-17.673 0-32-14.326-32-32v-64h704v64c0 17.674-14.326 32-32 32h-640zM32 688v-96h704v96h-704zM32 560v-96h704v96h-704zM32 432v-96h704v96h-704zM32 304v-64c0-17.674 14.327-32 32-32h640c17.674 0 32 14.326 32 32v64h-704zM0 784c0 35.346 28.654 64 64 64h640c35.346 0 64-28.654 64-64v-64h192c35.346 0 64-28.654 64-64v-416c0-35.346-28.654-64-64-64h-896c-35.346 0-64 28.654-64 64v544zM759.438 208h200.562c17.674 0 32 14.326 32 32v64h-224v-64c0-11.658-3.117-22.587-8.562-32zM768 336h224v96h-224v-96zM768 464h224v96h-224v-96zM768 592h224v64c0 17.674-14.326 32-32 32h-192v-96z" />
<glyph unicode="&#xe920;" glyph-name="animated-text" d="M130.196 271.771c-6.82-19.006-24.836-31.771-45.121-31.771h-37.119c-33.739 0-56.692 33.811-44.81 65.072l188.531 496c7.058 18.57 24.854 30.928 44.81 30.928h38.682c19.944 0 37.733-12.346 44.798-30.901l137.074-359.976c69.558-17.099 127.146-64.746 158.062-127.795 31.984 164.608 169.376 292.016 338.864 308.768l-37.104 37.36c-6.464 6.528-6.464 17.12 0 23.648s16.96 6.528 23.424 0l62.864-63.28c6.464-6.528 6.464-17.12-0.016-23.664l-62.864-63.28c-6.464-6.528-16.96-6.528-23.424 0s-6.464 17.12 0 23.648l32.576 32.8c-174.080-21.088-309.424-169.648-309.424-349.328h-34.72c-11.731 75.443-64.013 137.659-133.85 163.338l37.408-98.238c11.906-31.266-11.048-65.099-44.8-65.099h-36.797c-20.203 0-38.165 12.662-45.046 31.562l-38.682 106.24h-175.267l-38.050-106.030zM420.514 447.128l-130.45 342.582c-2.36 6.197-8.285 10.29-14.894 10.29h-38.682c-6.614 0-12.541-4.098-14.898-10.298l-188.531-496c-3.981-10.474 3.727-21.702 14.897-21.702h37.119c6.723 0 12.724 4.232 15.001 10.579l41.859 116.643c2.278 6.349 8.278 10.579 15.001 10.579h197.831c6.696 0 12.678-4.197 14.976-10.509l42.52-116.784c2.299-6.31 8.282-10.509 14.978-10.509h36.797c11.174 0 18.883 11.237 14.894 21.71l-45.544 119.608c-10.87 1.765-22.022 2.682-33.389 2.682-8.832 0-16 7.168-16 16s7.168 16 16 16c6.91 0 13.752-0.294 20.514-0.872zM255.886 619.987l43.819-120.888h-87.464l43.645 120.888zM174.411 488.549c-3.766-10.432 3.934-21.45 14.992-21.45h133.173c11.066 0 18.766 11.034 14.984 21.469l-66.722 184.067c-5.093 14.050-24.899 14.037-29.974-0.019l-66.453-184.067z" />
<glyph unicode="&#xe921;" glyph-name="dropbar" d="M568 374.738c-15.451 0-29.71-7.474-38.637-19.688l-17.363-23.762-17.363 23.762c-8.926 12.214-23.186 19.688-38.637 19.688h-264c-16.749 0-32 14.442-32 33.683v437.894c0 19.242 15.251 33.685 32 33.685h640c16.749 0 32-14.442 32-33.685v-437.894c0-19.242-15.251-33.683-32-33.683h-264zM568 342.738h264c35.2 0 64 29.557 64 65.683v437.894c0 36.127-28.8 65.685-64 65.685h-640c-35.2 0-64-29.558-64-65.685v-437.894c0-36.126 28.8-65.683 64-65.683h264c5.037 0 9.778-2.434 12.8-6.57l30.4-41.6c6.4-8.757 19.2-8.757 25.6 0l30.4 41.6c3.022 4.136 7.763 6.57 12.8 6.57zM160 208c0 8.837 7.163 16 16 16h672c8.837 0 16-7.163 16-16s-7.163-16-16-16h-672c-8.837 0-16 7.163-16 16zM160 144c0 8.837 7.163 16 16 16h320c8.837 0 16-7.163 16-16s-7.163-16-16-16h-320c-8.837 0-16 7.163-16 16z" />
<glyph unicode="&#xe922;" glyph-name="logo-showcase" d="M525.64 446.694l-169.373-169.373-276.267 276.267v134.422l63.988 63.989h134.423l153.589-153.589v45.256l-135.234 135.232c-1.888 1.512-3.966 2.645-6.234 3.4-2.266 1.134-4.533 1.701-6.8 1.701h-145.066c-2.267 0-4.533-0.566-6.8-1.701-2.267-0.755-4.344-1.888-6.233-3.4l-72.533-72.533c-1.511-1.888-2.833-3.966-3.967-6.234-0.756-2.266-1.133-4.533-1.133-6.8v-145.066c0-2.267 0.378-4.534 1.133-6.8 1.133-2.267 2.456-4.346 3.967-6.234l290.134-290.134c1.888-1.51 3.966-2.643 6.234-3.398 2.266-1.134 4.533-1.701 6.8-1.701s4.533 0.566 6.8 1.701c2.266 0.755 4.344 1.888 6.234 3.398l178.966 178.968-22.627 22.627zM143.769 590.859l0.595-0.629 0.628-0.594c13.327-12.626 29.974-18.97 48.075-18.97 18.115 0 34.933 6.379 48.126 19.573 13.213 13.211 20.139 30.053 20.139 48.693 0 18.39-6.766 35.158-20.134 48.133-12.974 13.366-29.742 20.134-48.131 20.134-18.642 0-35.483-6.928-48.695-20.139-13.193-13.194-19.573-30.011-19.573-48.128 0-18.101 6.344-34.747 18.969-48.074zM193.067 675.2c10.2 0 18.699-3.589 25.499-10.766 7.178-6.8 10.766-15.301 10.766-25.501s-3.589-18.888-10.766-26.066c-6.8-6.8-15.299-10.2-25.499-10.2s-18.89 3.4-26.067 10.2c-6.8 7.178-10.2 15.866-10.2 26.066s3.4 18.701 10.2 25.501c7.178 7.178 15.867 10.766 26.067 10.766zM740.267 277.322l198.411 198.411-276.267 276.267h-134.422l-63.989-63.989v-134.422l276.267-276.267zM727.234 245.099l-290.133 290.134c-1.512 1.888-2.834 3.966-3.968 6.234-0.755 2.266-1.133 4.533-1.133 6.8v145.066c0 2.267 0.378 4.534 1.133 6.8 1.134 2.267 2.456 4.346 3.968 6.234l72.533 72.533c1.888 1.512 3.966 2.645 6.234 3.4 2.266 1.134 4.533 1.701 6.8 1.701h145.066c2.267 0 4.534-0.566 6.8-1.701 2.267-0.755 4.346-1.888 6.234-3.4l290.134-290.133c3.398-3.778 5.099-8.122 5.099-13.034 0-4.91-1.701-9.254-5.099-13.034l-217.6-217.6c-1.89-1.51-3.968-2.643-6.234-3.398-2.267-1.134-4.534-1.701-6.8-1.701-2.267 0-4.534 0.566-6.8 1.701-2.267 0.755-4.346 1.888-6.234 3.398zM528.365 590.23l-0.595 0.629c-12.626 13.326-18.97 29.973-18.97 48.074 0 18.117 6.379 34.934 19.573 48.128 13.211 13.211 30.053 20.139 48.694 20.139 18.389 0 35.157-6.768 48.131-20.134 13.368-12.974 20.134-29.742 20.134-48.133 0-18.64-6.926-35.482-20.139-48.693-13.194-13.194-30.011-19.573-48.126-19.573-18.101 0-34.749 6.344-48.075 18.97l-0.627 0.594zM602.566 664.434c-6.8 7.178-15.299 10.766-25.499 10.766s-18.89-3.589-26.067-10.766c-6.8-6.8-10.2-15.301-10.2-25.501s3.4-18.888 10.2-26.066c7.178-6.8 15.867-10.2 26.067-10.2s18.699 3.4 25.499 10.2c7.178 7.178 10.766 15.866 10.766 26.066s-3.589 18.701-10.766 25.501z" />
<glyph unicode="&#xe923;" glyph-name="portfolio" d="M440 464c-30.928 0-56 25.072-56 56s25.072 56 56 56c30.928 0 56-25.072 56-56s-25.072-56-56-56zM440 496c13.254 0 24 10.746 24 24s-10.746 24-24 24c-13.254 0-24-10.746-24-24s10.746-24 24-24zM444.445 325.818l67.555 67.555 68.686-68.686c6.248-6.248 16.379-6.248 22.627 0s6.248 16.379 0 22.627l-78.869 78.869c-6.874 6.874-18.016 6.874-24.89 0l-67.555-67.555-33.373 33.373c-12.496 12.496-32.758 12.496-45.254 0l-44.686-44.686c-6.248-6.248-6.248-16.379 0-22.627s16.379-6.248 22.627 0l44.686 44.686 43.555-43.555c6.874-6.874 18.016-6.874 24.89 0zM512 393.373l1.096 21.461 0.035 0.035-1.131-21.496zM864 240h64c35.346 0 64 28.654 64 64v544c0 35.346-28.654 64-64 64h-704c-35.346 0-64-28.654-64-64v-64h-64c-35.346 0-64-28.654-64-64v-544c0-35.346 28.654-64 64-64h704c35.346 0 64 28.654 64 64v64zM928 880c17.674 0 32-14.327 32-32v-544c0-17.674-14.326-32-32-32h-64v448c0 35.346-28.654 64-64 64h-608v64c0 17.673 14.326 32 32 32h704zM96 752h704c17.674 0 32-14.326 32-32v-544c0-17.674-14.326-32-32-32h-704c-17.673 0-32 14.326-32 32v544c0 17.674 14.327 32 32 32z" />
<glyph unicode="&#xe924;" glyph-name="weather" d="M368 848c8.837 0 16-7.163 16-16v-48c0-8.837-7.163-16-16-16s-16 7.163-16 16v48c0 8.837 7.163 16 16 16zM192 592c0-8.837-7.163-16-16-16h-48c-8.836 0-16 7.163-16 16s7.164 16 16 16h48c8.837 0 16-7.163 16-16zM526.392 773.019l-33.941-33.941c-6.248-6.248-6.248-16.379 0-22.627s16.379-6.248 22.627 0l33.941 33.941c6.248 6.248 6.248 16.379 0 22.627s-16.379 6.248-22.627 0zM243.549 467.549c6.248-6.248 6.248-16.379 0-22.627l-33.941-33.941c-6.248-6.248-16.379-6.248-22.627 0s-6.248 16.379 0 22.627l33.941 33.941c6.248 6.248 16.379 6.248 22.627 0zM243.549 739.078l-33.941 33.941c-6.248 6.248-16.379 6.248-22.627 0s-6.248-16.379 0-22.627l33.941-33.941c6.248-6.248 16.379-6.248 22.627 0 6.25 6.248 6.25 16.379 0 22.627zM318.794 491.36c-37.187 18.216-62.794 56.438-62.794 100.64 0 61.856 50.144 112 112 112 56.154 0 102.654-41.325 110.752-95.221-6.648-7.115-12.95-14.709-18.909-22.779-15.749-20.89-28.218-43.778-37.406-68.667h-14.437c-23.187 0-45.062-4.443-65.626-13.333-8.266-3.651-16.126-7.864-23.581-12.64zM291.731 469.834c-0.845-0.824-1.682-1.658-2.512-2.501-15.314-15.555-27.344-33.778-36.094-54.666-8.75-20.445-13.125-42.445-13.125-66 0-23.557 4.374-45.778 13.125-66.667 8.75-20.445 20.781-38.445 36.094-54s33.030-27.778 53.155-36.667c20.563-8.888 42.438-13.333 65.626-13.333h276.938c1.75 0.445 3.282 1.11 4.594 2 31.938 4 61.469 13.333 88.594 28s50.531 33.333 70.219 56c20.125 22.667 35.656 48.445 46.594 77.333 11.374 29.334 17.062 60.222 17.062 92.667 0 35.11-6.781 68.222-20.344 99.333-13.125 31.112-31.062 58.222-53.813 81.334-22.749 23.11-49.437 41.333-80.062 54.666-30.624 13.778-63.218 20.667-97.781 20.667-26.688 0-52.499-4.222-77.437-12.667-24.501-8.443-47.251-20.222-68.251-35.333-2.859-2.040-5.672-4.144-8.438-6.312-17.877 59.202-72.84 102.312-137.874 102.312-79.53 0-144-64.47-144-144 0-51.518 27.054-96.718 67.731-122.166zM532.894 613.947l0.109 0.078c18.44 13.27 38.378 23.597 59.904 31.026 21.56 7.291 43.877 10.949 67.093 10.949 30.171 0 58.277-5.984 84.653-17.85l0.176-0.080 0.179-0.077c26.986-11.749 50.24-27.67 70.030-47.776 19.795-20.107 35.517-43.784 47.134-71.323l0.074-0.174 0.075-0.174c11.744-26.938 17.678-55.68 17.678-86.546 0-28.613-4.998-55.568-14.898-81.098l-0.046-0.118-0.045-0.12c-9.586-25.317-23.107-47.72-40.597-67.418l-0.23-0.262c-17.094-19.682-37.448-35.949-61.278-48.835-23.482-12.696-49.178-20.869-77.35-24.397l-7.614-0.954-1.179-0.798h-268.762c-18.933 0-36.434 3.595-52.813 10.656-16.413 7.267-30.736 17.166-43.163 29.792-12.432 12.629-22.226 27.232-29.43 44.029-7.014 16.784-10.594 34.75-10.594 54.19 0 19.488 3.597 37.176 10.544 53.408l0.048 0.114 0.048 0.115c7.237 17.274 17.037 32.038 29.384 44.581 12.427 12.626 26.75 22.526 43.163 29.792 16.379 7.062 33.88 10.656 52.813 10.656h36.736l7.722 20.918c8.12 22 19.094 42.125 32.938 60.483l0.192 0.259c13.85 18.758 29.622 34.341 47.307 46.954z" />
<glyph unicode="&#xe925;" glyph-name="progress-bar" d="M480 720c17.674 0 32-14.326 32-32s-14.326-32-32-32h-416c-17.673 0-32 14.326-32 32s14.327 32 32 32h416zM64 752c-35.346 0-64-28.654-64-64s28.654-64 64-64h416c35.346 0 64 28.654 64 64s-28.654 64-64 64h-416zM541.984 672c1.317 5.114 2.016 10.475 2.016 16s-0.699 10.886-2.016 16h466.016c8.837 0 16-7.163 16-16s-7.163-16-16-16h-466.016zM64 544c-17.673 0-32-14.326-32-32s14.327-32 32-32h544c17.674 0 32 14.326 32 32s-14.326 32-32 32h-544zM0 512c0 35.346 28.654 64 64 64h544c29.821 0 54.878-20.397 61.984-48h338.016c8.837 0 16-7.163 16-16s-7.163-16-16-16h-338.016c-7.106-27.603-32.163-48-61.984-48h-544c-35.346 0-64 28.654-64 64zM397.984 320h610.016c8.837 0 16 7.163 16 16s-7.163 16-16 16h-610.016c1.315-5.114 2.016-10.475 2.016-16s-0.701-10.886-2.016-16zM336 368c17.674 0 32-14.326 32-32s-14.326-32-32-32h-272c-17.673 0-32 14.326-32 32s14.327 32 32 32h272zM64 400c-35.346 0-64-28.654-64-64s28.654-64 64-64h272c35.346 0 64 28.654 64 64s-28.654 64-64 64h-272z" />
<glyph unicode="&#xe926;" glyph-name="price-list" d="M873.848 218.738c0 12.912-4.469 23.789-13.405 32.63-8.8 8.843-23.717 16.843-44.752 24-29.285 9.123-50.664 20.982-64.138 35.579-13.336 14.738-20.005 33.403-20.005 56 0 23.018 6.531 41.894 19.592 56.632 13.198 14.736 31.278 23.509 54.238 26.315v46.106h30.728v-46.315c23.098-3.229 41.040-13.123 53.826-29.685 12.925-16.562 19.386-39.229 19.386-68h-37.946c0 19.789-4.606 35.509-13.818 47.158s-21.654 17.474-37.328 17.474c-16.36 0-28.872-4.352-37.533-13.053-8.662-8.562-12.994-20.562-12.994-36 0-14.317 4.538-25.755 13.611-34.317 9.213-8.421 24.267-16.139 45.165-23.157 21.035-6.877 37.397-14.526 49.083-22.947 11.824-8.282 20.485-17.965 25.984-29.053 5.637-11.088 8.456-24.070 8.456-38.947 0-23.72-7.011-42.808-21.035-57.264-13.886-14.456-33.41-23.018-58.57-25.683v-40.211h-30.522v40.211c-25.573 2.386-45.646 11.648-60.219 27.789-14.437 16.28-21.654 38.315-21.654 66.106h38.152c0-19.509 5.019-34.526 15.056-45.053 10.035-10.526 24.266-15.79 42.69-15.79 18.010 0 32.171 4.422 42.483 13.264 10.31 8.842 15.467 20.912 15.467 36.211zM64 896h896c17.674 0 32-14.327 32-32v-416c0-17.674-14.326-32-32-32h-30.736c4.422-10.014 7.517-20.739 9.462-32h21.274c35.346 0 64 28.654 64 64v416c0 35.346-28.654 64-64 64h-896c-35.346 0-64-28.654-64-64v-416c0-35.346 28.654-64 64-64h636.555c1.362 11.211 4.122 21.934 8.411 32h-644.966c-17.673 0-32 14.326-32 32v416c0 17.673 14.327 32 32 32zM128 784c0 8.837 7.164 16 16 16h736c8.837 0 16-7.163 16-16s-7.163-16-16-16h-736c-8.837 0-16 7.163-16 16zM128 720c0 8.837 7.164 16 16 16h320c8.837 0 16-7.163 16-16s-7.163-16-16-16h-320c-8.836 0-16 7.163-16 16zM144 608c-8.836 0-16-7.163-16-16s7.163-16 16-16h736c8.837 0 16 7.163 16 16s-7.163 16-16 16h-736zM128 528c0 8.837 7.164 16 16 16h320c8.837 0 16-7.163 16-16s-7.163-16-16-16h-320c-8.836 0-16 7.163-16 16z" />
<glyph unicode="&#xe927;" glyph-name="posts" d="M504 736c-30.928 0-56 25.072-56 56s25.072 56 56 56c30.928 0 56-25.072 56-56s-25.072-56-56-56zM504 768c13.254 0 24 10.746 24 24s-10.746 24-24 24c-13.254 0-24-10.746-24-24s10.746-24 24-24zM576 665.373l68.686-68.686c6.248-6.25 16.379-6.25 22.627 0 6.248 6.248 6.248 16.379 0 22.627l-78.869 78.869c-6.874 6.872-18.016 6.874-24.89 0l-67.555-67.555-33.373 33.373c-12.496 12.496-32.758 12.496-45.254 0l-44.686-44.686c-6.248-6.248-6.248-16.379 0-22.627 6.248-6.25 16.379-6.25 22.627 0l44.686 44.686 43.555-43.555c6.874-6.874 18.016-6.874 24.89 0l67.555 67.555zM128 928v-432c0-35.346 28.654-64 64-64h640c35.346 0 64 28.654 64 64v432c0 35.346-28.654 64-64 64h-640c-35.346 0-64-28.654-64-64zM192 960h640c17.674 0 32-14.327 32-32v-432c0-17.674-14.326-32-32-32h-640c-17.674 0-32 14.326-32 32v432c0 17.673 14.326 32 32 32zM160 112v-16c0-35.346 28.654-64 64-64h128c35.346 0 64 28.654 64 64v16c0 35.346-28.654 64-64 64h-128c-35.346 0-64-28.654-64-64zM224 144h128c17.674 0 32-14.326 32-32v-16c0-17.674-14.326-32-32-32h-128c-17.674 0-32 14.326-32 32v16c0 17.674 14.326 32 32 32zM176 384c-8.837 0-16-7.163-16-16s7.163-16 16-16h672c8.837 0 16 7.163 16 16s-7.163 16-16 16h-672zM176 320c-8.837 0-16-7.163-16-16s7.163-16 16-16h672c8.837 0 16 7.163 16 16s-7.163 16-16 16h-672zM176 256c-8.837 0-16-7.163-16-16s7.163-16 16-16h320c8.837 0 16 7.163 16 16s-7.163 16-16 16h-320z" />
<glyph unicode="&#xe928;" glyph-name="circle-progress" d="M304 224c-159.058 0-288 128.942-288 288s128.942 288 288 288c81.768 0 155.576-34.075 208-88.802 0.838 0.875 1.68 1.744 2.53 2.608 1.374 1.4 2.763 2.786 4.166 4.157 51.922 50.755 122.96 82.037 201.304 82.037 159.058 0 288-128.942 288-288 0-77.779-30.834-148.358-80.944-200.179-2.11-2.182-4.254-4.331-6.43-6.445-51.422-49.939-121.426-80.85-198.646-81.37-1.382-0.010-2.765-0.008-4.149 0.002-80.902 0.597-153.87 34.552-205.83 88.794-52.424-54.726-126.232-88.802-208-88.802zM304 256c73.822 0 140.346 31.246 187.067 81.237-13.659 17.866-25.275 37.378-34.498 58.186-35.086-45.85-90.374-75.422-152.57-75.422-106.038 0-192 85.962-192 192s85.962 192 192 192c62.195 0 117.483-29.573 152.57-75.422 9.222 20.808 20.838 40.32 34.498 58.186-46.722 49.99-113.245 81.237-187.067 81.237-141.386 0-256-114.614-256-256s114.614-256 256-256zM443.037 591.232c-27.555 48.248-79.498 80.768-139.037 80.768-88.365 0-160-71.635-160-160s71.635-160 160-160c59.539 0 111.482 32.52 139.037 80.768-7.182 25.152-11.030 51.71-11.037 79.166v0.066c0 27.48 3.848 54.061 11.037 79.232zM721.758 256.006c32.866 0.226 65.546 6.779 96.208 19.48 29.406 12.181 56.126 29.67 78.904 51.438 2.878 2.75 5.693 5.568 8.44 8.451 10.109 10.605 19.333 22.106 27.546 34.398 22.165 33.171 36.186 70.933 41.136 110.226h-285.992v285.992c-39.293-4.95-77.054-18.971-110.226-41.136-13.224-8.835-25.531-18.84-36.794-29.859-1.037-1.013-2.064-2.035-3.083-3.067-23.152-23.43-41.682-51.23-54.411-81.963-19.376-46.778-24.445-98.25-14.568-147.909s34.261-95.275 70.062-131.077 81.418-60.184 131.077-70.062c15.901-3.162 31.987-4.792 48.046-4.912 0.301-0.002 0.602-0.003 0.902-0.005 0.331-0.002 0.662-0.002 0.994-0.002 0.35 0 0.701 0 1.051 0.002 0.235 0.002 0.472 0.003 0.707 0.005zM720 768v-256h256c0 141.386-114.614 256-256 256z" />
<glyph unicode="&#xe929;" glyph-name="scroll-navigation" d="M336 608c-8.837 0-16-7.163-16-16s7.163-16 16-16h224c8.837 0 16 7.163 16 16s-7.163 16-16 16h-224zM320 528c0 8.837 7.163 16 16 16h224c8.837 0 16-7.163 16-16s-7.163-16-16-16h-224c-8.837 0-16 7.163-16 16zM400 480c-8.837 0-16-7.163-16-16s7.163-16 16-16h96c8.837 0 16 7.163 16 16s-7.163 16-16 16h-96zM160 928h576c35.346 0 64-28.654 64-64v-64h32c35.346 0 64-28.654 64-64v-432c0-35.346-28.654-64-64-64h-48v-64c0-35.346-28.654-64-64-64h-560c-35.346 0-64 28.654-64 64v64h-32c-35.346 0-64 28.654-64 64v432c0 35.346 28.654 64 64 64h32v64c0 35.346 28.654 64 64 64zM768 800v64c0 17.673-14.326 32-32 32h-576c-17.673 0-32-14.327-32-32v-64h640zM128 176c0-17.674 14.327-32 32-32h560c17.674 0 32 14.326 32 32v64h-624v-64zM832 768h-768c-17.673 0-32-14.326-32-32v-432c0-17.674 14.327-32 32-32h768c17.674 0 32 14.326 32 32v432c0 17.674-14.326 32-32 32zM1008 464c8.837 0 16-7.163 16-16s-7.163-16-16-16c-8.837 0-16 7.163-16 16s7.163 16 16 16zM1008 528c8.837 0 16-7.163 16-16s-7.163-16-16-16c-8.837 0-16 7.163-16 16s7.163 16 16 16zM1008 592c8.837 0 16-7.163 16-16s-7.163-16-16-16c-8.837 0-16 7.163-16 16s7.163 16 16 16z" />
<glyph unicode="&#xe92a;" glyph-name="animated-box" d="M264.562 768c-5.445-9.413-8.562-20.342-8.562-32h-192c-17.673 0-32-14.326-32-32v-368c0-17.674 14.327-32 32-32h192c0-11.658 3.117-22.587 8.562-32h-200.562c-35.346 0-64 28.654-64 64v368c0 35.346 28.654 64 64 64h200.562zM704 768c17.674 0 32-14.326 32-32v-432c0-17.674-14.326-32-32-32h-384c-17.674 0-32 14.326-32 32v432c0 17.674 14.326 32 32 32h384zM320 800c-35.346 0-64-28.654-64-64v-432c0-35.346 28.654-64 64-64h384c35.346 0 64 28.654 64 64v432c0 35.346-28.654 64-64 64h-384zM1019.152 619.824l-62.864 63.28c-6.464 6.528-16.96 6.528-23.424 0s-6.464-17.12 0-23.648l37.104-37.36c-169.488-16.752-306.88-144.16-338.864-308.768-39.040 79.616-120.608 134.672-215.104 134.672-8.832 0-16-7.168-16-16s7.168-16 16-16c103.792 0 189.808-76.496 205.28-176h34.72c0 179.68 135.344 328.24 309.424 349.328l-32.576-32.8c-6.464-6.528-6.464-17.12 0-23.648s16.96-6.528 23.424 0l62.864 63.28c6.48 6.544 6.48 17.136 0.016 23.664z" />
<glyph unicode="&#xe92b;" glyph-name="advanced-carousel" d="M256 800c17.674 0 32-14.326 32-32v-192c0-17.674-14.326-32-32-32h-192c-17.673 0-32 14.326-32 32v192c0 17.674 14.327 32 32 32h192zM64 832c-35.346 0-64-28.654-64-64v-192c0-35.346 28.654-64 64-64h192c35.346 0 64 28.654 64 64v192c0 35.346-28.654 64-64 64h-192zM32 448c0-8.837 7.164-16 16-16h224c8.837 0 16 7.163 16 16s-7.163 16-16 16h-224c-8.836 0-16-7.163-16-16zM48 400h224c8.837 0 16-7.163 16-16s-7.163-16-16-16h-224c-8.836 0-16 7.163-16 16s7.164 16 16 16zM32 320c0-8.837 7.164-16 16-16h96c8.836 0 16 7.163 16 16s-7.164 16-16 16h-96c-8.836 0-16-7.163-16-16zM400 464h224c8.837 0 16-7.163 16-16s-7.163-16-16-16h-224c-8.837 0-16 7.163-16 16s7.163 16 16 16zM384 384c0-8.837 7.163-16 16-16h224c8.837 0 16 7.163 16 16s-7.163 16-16 16h-224c-8.837 0-16-7.163-16-16zM400 336h96c8.837 0 16-7.163 16-16s-7.163-16-16-16h-96c-8.837 0-16 7.163-16 16s7.163 16 16 16zM736 448c0-8.837 7.163-16 16-16h224c8.837 0 16 7.163 16 16s-7.163 16-16 16h-224c-8.837 0-16-7.163-16-16zM752 400h224c8.837 0 16-7.163 16-16s-7.163-16-16-16h-224c-8.837 0-16 7.163-16 16s7.163 16 16 16zM736 320c0-8.837 7.163-16 16-16h96c8.837 0 16 7.163 16 16s-7.163 16-16 16h-96c-8.837 0-16-7.163-16-16zM416 800c-17.674 0-32-14.326-32-32v-192c0-17.674 14.326-32 32-32h192c17.674 0 32 14.326 32 32v192c0 17.674-14.326 32-32 32h-192zM352 768c0 35.346 28.654 64 64 64h192c35.346 0 64-28.654 64-64v-192c0-35.346-28.654-64-64-64h-192c-35.346 0-64 28.654-64 64v192zM960 800c17.674 0 32-14.326 32-32v-192c0-17.674-14.326-32-32-32h-192c-17.674 0-32 14.326-32 32v192c0 17.674 14.326 32 32 32h192zM768 832c-35.346 0-64-28.654-64-64v-192c0-35.346 28.654-64 64-64h192c35.346 0 64 28.654 64 64v192c0 35.346-28.654 64-64 64h-192zM464 192c0 8.837-7.163 16-16 16s-16-7.163-16-16c0-8.837 7.163-16 16-16s16 7.163 16 16zM528 192c0 8.837-7.163 16-16 16s-16-7.163-16-16c0-8.837 7.163-16 16-16s16 7.163 16 16zM576 176c-8.837 0-16 7.163-16 16s7.163 16 16 16c8.837 0 16-7.163 16-16s-7.163-16-16-16z" />
<glyph unicode="&#xe92c;" glyph-name="lottie-files" d="M208 320c0 95.554 16.755 181.299 43.208 242.558 13.238 30.656 28.59 54.45 44.822 70.349 16.162 15.83 32.35 23.093 47.97 23.093s31.808-7.262 47.97-23.093c16.232-15.899 31.584-39.693 44.822-70.349 26.453-61.259 43.208-147.005 43.208-242.558h32c0 60.221 10.493 113.981 26.824 152.090 8.178 19.082 17.506 33.502 27.048 42.92 9.472 9.349 18.283 12.99 26.128 12.99v32c-18.666 0-35.109-8.894-48.606-22.214-13.429-13.253-24.787-31.637-33.982-53.091-3.427-7.997-6.597-16.523-9.488-25.514-7.891 43.469-19.395 82.813-33.754 116.064-14.269 33.043-31.67 60.798-51.808 80.523-20.21 19.795-44.006 32.232-70.362 32.232s-50.152-12.437-70.362-32.232c-20.138-19.725-37.539-47.48-51.808-80.523-11.024-25.531-20.366-54.654-27.683-86.48-9.931 58.034-24.864 110.426-43.676 154.322-17.881 41.722-39.583 76.507-64.497 101.096-24.983 24.654-54.054 39.818-85.974 39.818v-32c21.099 0 42.537-9.91 63.496-30.594 21.027-20.752 40.698-51.574 57.562-90.925 33.704-78.645 54.942-188.405 54.942-310.482h32zM992 512c0 88.365-71.634 160-160 160s-160-71.635-160-160 71.635-160 160-160c88.366 0 160 71.635 160 160zM1024 512c0-106.038-85.962-192-192-192s-192 85.962-192 192c0 106.038 85.962 192 192 192s192-85.962 192-192z" />
</font>
</defs>
</svg>
